<?xml version="1.0" standalone="no"?>
<!DOCTYPE svg PUBLIC "-//W3C//DTD SVG 1.1//EN" "http://www.w3.org/Graphics/SVG/1.1/DTD/svg11.dtd" >
<svg>
<metadata>
Created by FontForge 20090622 at Mon Feb 15 17:25:08 2016
 By deploy user
Copyright &#194;&#169; 2009 Linotype GmbH, www.linotype.com. All rights reserved. This font software may not be reproduced, modified, disclosed or transferred without the express written approval of Linotype GmbH. Vialog is a trademark of Linotype GmbH and may be registered in certain jurisdictions. This typeface is original artwork of Werner Schneider and Helmut Ness. The design may be protected in certain jurisdictions.
</metadata>
<defs>
<font id="ScoutVialog-Bold" horiz-adv-x="318" >
  <font-face 
    font-family="Scout Vialog"
    font-weight="700"
    font-stretch="normal"
    units-per-em="1000"
    panose-1="2 11 8 4 2 0 0 2 0 4"
    ascent="712"
    descent="-288"
    x-height="496"
    cap-height="667"
    bbox="-61 -224 1228 886"
    underline-thickness="50"
    underline-position="-50"
    unicode-range="U+000D-U+FB02"
  />
<missing-glyph horiz-adv-x="512" 
d="M222 117v67h56v-67h-56zM225 234l-2 17q0 56 13 81q7 13 18 27.5t28 31.5q16 15 26 26.5t15 21t7 18t2 17.5q0 36 -22.5 60.5t-53.5 24.5t-53.5 -22t-28.5 -73l-50 8q7 72 44 104.5t91 32.5t89 -35.5t35 -95.5q0 -32 -12.5 -58.5t-50.5 -61.5q-37 -33 -43 -52
q-6 -20 -6 -72h-46zM462 50v617h-412v-617h412zM512 718v-718h-512v718h512z" />
    <glyph glyph-name="IJ" unicode="IJ" horiz-adv-x="748" 
d="M76 0v667h162v-667h-162zM672 49q0 -44 -11.5 -81.5t-37 -64.5t-65.5 -42.5t-97 -15.5q-42 0 -80.5 5t-64.5 14l22 112q27 -8 46.5 -9.5t38.5 -1.5q50 0 68.5 22t18.5 53v513h-159v114h321v-618z" />
    <glyph glyph-name="ij" unicode="ij" horiz-adv-x="636" 
d="M95 0v394h-66v102h219v-496h-153zM256 648q0 -34 -26 -57.5t-64 -23.5t-64 23.5t-26 57.5t26 57.5t64 23.5t64 -23.5t26 -57.5zM567 -33q0 -83 -43 -124t-122 -41q-24 0 -46.5 2t-40.5 8l27 105q6 -2 13.5 -4t16.5 -2q26 0 34 23.5t8 59.5v400h-66v102h219v-529v0z
M575 648q0 -34 -26 -57.5t-64 -23.5t-64 23.5t-26 57.5t26 57.5t64 23.5t64 -23.5t26 -57.5z" />
    <glyph glyph-name="napostrophe" unicode="&#x22;n" horiz-adv-x="548" 
d="M333 0v336q0 27 -10.5 48t-44.5 21q-18 0 -30.5 -8.5t-19.5 -22t-10 -30.5t-3 -35v-309h-153v496h136l9 -65q15 32 47 53t88 21q37 0 64 -12t45 -33t26.5 -49.5t8.5 -60.5v-350h-153zM93 554l-96 23l60 169l112 -29z" />
    <glyph glyph-name="fi" unicode="fi" horiz-adv-x="650" 
d="M326 606q-18 3 -25.5 4t-20.5 1q-19 0 -29.5 -14t-10.5 -37v-64h84v-103h-84v-393h-153v393h-72v103h72v79q0 60 41 98.5t116 38.5q32 0 59.5 -3t44.5 -8zM426 0v394h-66v102h219v-496h-153zM587 648q0 -34 -26 -57.5t-64 -23.5t-64 23.5t-26 57.5t26 57.5t64 23.5
t64 -23.5t26 -57.5z" />
    <glyph glyph-name="fl" unicode="fl" horiz-adv-x="650" 
d="M326 606q-18 3 -25.5 4t-20.5 1q-19 0 -29.5 -14t-10.5 -37v-64h84v-103h-84v-393h-153v393h-72v103h72v79q0 60 41 98.5t116 38.5q32 0 59.5 -3t44.5 -8zM627 1q-3 -2 -13.5 -4t-23 -3.5t-24.5 -2t-18 -0.5q-86 0 -120.5 33t-34.5 105v583h153v-542q0 -36 6.5 -56
t27.5 -20q9 0 18.5 1.5t15.5 3.5l13 -98v0z" />
    <glyph glyph-name=".notdef" horiz-adv-x="512" 
d="M222 117v67h56v-67h-56zM225 234l-2 17q0 56 13 81q7 13 18 27.5t28 31.5q16 15 26 26.5t15 21t7 18t2 17.5q0 36 -22.5 60.5t-53.5 24.5t-53.5 -22t-28.5 -73l-50 8q7 72 44 104.5t91 32.5t89 -35.5t35 -95.5q0 -32 -12.5 -58.5t-50.5 -61.5q-37 -33 -43 -52
q-6 -20 -6 -72h-46zM462 50v617h-412v-617h412zM512 718v-718h-512v718h512z" />
    <glyph glyph-name="nonmarkingreturn" unicode="&#xd;" horiz-adv-x="0" 
 />
    <glyph glyph-name="space" unicode=" " horiz-adv-x="282" 
 />
    <glyph glyph-name="exclam" unicode="!" horiz-adv-x="324" 
d="M260 80q0 -18 -7.5 -34.5t-21 -29t-31.5 -20t-38 -7.5t-38 7.5t-31.5 20t-21 29t-7.5 34.5t7.5 35t21 29.5t31.5 20t38 7.5t38 -7.5t31.5 -20t21 -29.5t7.5 -35zM86 224v443h153v-443h-153z" />
    <glyph glyph-name="quotedbl" unicode="&#x22;" horiz-adv-x="454" 
d="M85 459v208h112v-208h-112zM257 459v208h112v-208h-112z" />
    <glyph glyph-name="numbersign" unicode="#" horiz-adv-x="564" 
d="M238 407l-26 -125h114l26 125h-114zM452 407l-26 -125h74v-91h-93l-39 -191h-100l39 191h-114l-39 -191h-100l39 191h-72v91h91l26 125h-74v92h93l34 168h100l-34 -168h114l34 168h100l-34 -168h72v-92h-91z" />
    <glyph glyph-name="dollar" unicode="$" horiz-adv-x="564" 
d="M465 239q0 -71 -38.5 -110t-105.5 -53v-76h-100v70q-27 2 -65.5 7t-74.5 19l28 106q14 -8 32 -13t36 -8.5t34.5 -5t27.5 -1.5q33 0 50 13.5t17 33.5q0 16 -15.5 27t-39.5 22l-51 23t-51 29.5t-39.5 41t-15.5 58.5q0 65 38 103.5t95 52.5v78h100v-69q29 -1 59 -5.5
t62 -14.5l-29 -103q-8 3 -21 6t-29 6t-32.5 4.5t-31.5 1.5q-17 0 -29 -4.5t-19 -11t-10 -13.5t-3 -13q0 -14 16.5 -25.5t41 -23.5l53 -26t53 -31.5t41 -40.5t16.5 -54z" />
    <glyph glyph-name="percent" unicode="%" horiz-adv-x="987" 
d="M257 474q0 14 -1 33.5t-5 37t-13.5 30t-25.5 12.5q-17 0 -26 -12.5t-13 -30t-5 -37t-1 -33.5q0 -17 0.5 -39.5t4.5 -43t13 -35t27 -14.5q17 0 26.5 14.5t13.5 35t4.5 43t0.5 39.5zM820 202q0 14 -1 33.5t-5 37t-13.5 30t-25.5 12.5q-17 0 -26 -12.5t-13 -30t-5 -37
t-1 -33.5q0 -17 0.5 -39.5t4.5 -43.5t13 -35.5t27 -14.5q17 0 26.5 14.5t13.5 35t4.5 43.5t0.5 40zM383 474q0 -31 -5.5 -68t-23 -69t-51.5 -53.5t-91 -21.5t-91 21t-52 53t-23 69t-5 69q0 31 7 65t25.5 62.5t52 47t86.5 18.5q54 0 87 -18.5t52 -47t25.5 -62.5t6.5 -65z
M394 -24h-102l302 704h102zM946 202q0 -31 -5.5 -68t-23 -69.5t-51.5 -54t-91 -21.5t-91 21.5t-52 53.5t-23 69t-5 69q0 31 7 65t25.5 62.5t52 47t86.5 18.5q54 0 87 -18.5t52 -47t25.5 -62.5t6.5 -65z" />
    <glyph glyph-name="ampersand" unicode="&#x26;" horiz-adv-x="672" 
d="M259 283q-24 -17 -45.5 -44t-21.5 -67q0 -36 24.5 -58t68.5 -22q33 0 58.5 11.5t45.5 31.5zM364 521q0 23 -14.5 42.5t-42.5 19.5q-29 0 -43 -20t-14 -42q0 -31 12 -55.5t35 -48.5q29 22 48 44.5t19 59.5zM531 -21l-69 76q-21 -17 -42.5 -29.5t-46.5 -20.5t-56.5 -12
t-71.5 -4q-41 0 -78 12.5t-64.5 36.5t-44 58t-16.5 76q0 35 13 64t34 52t47 41t53 32q-15 15 -30 33t-26.5 38t-19 41.5t-7.5 44.5q0 41 18 71.5t47.5 50t66 29t73.5 9.5q34 0 69.5 -9t63.5 -27t46 -46.5t18 -67.5q0 -35 -13 -62t-33.5 -48.5t-44 -38.5l-44.5 -31l110 -119
q17 17 32.5 37t26.5 38l89 -75q-5 -8 -13.5 -19l-18 -23t-20 -23.5t-19.5 -19.5l72 -77z" />
    <glyph glyph-name="quotesingle" unicode="'" horiz-adv-x="282" 
d="M85 459v208h112v-208h-112z" />
    <glyph glyph-name="parenleft" unicode="(" 
d="M218 -78l-62 97t-52.5 100.5t-36 107t-13.5 117.5q0 60 13.5 113t36.5 102.5t52.5 95l61.5 90.5l86 -22q-49 -86 -82.5 -180t-33.5 -199q0 -55 9.5 -109t26 -104.5t37 -97.5t43.5 -89z" />
    <glyph glyph-name="parenright" unicode=")" 
d="M264 344q0 -62 -13.5 -117.5t-36 -107t-52.5 -100.5l-62 -97l-86 22q22 42 43 89t37.5 97.5t26 104.5t9.5 109q0 105 -33.5 199t-82.5 180l86 22l61.5 -90.5t52.5 -95t36.5 -102.5t13.5 -113z" />
    <glyph glyph-name="asterisk" unicode="*" horiz-adv-x="423" 
d="M270 469l91 -95l-91 -62l-58 116l-60 -116l-89 62l89 95l-124 24l33 105l118 -61l-21 130h111l-19 -130l113 61l32 -105z" />
    <glyph glyph-name="plus" unicode="+" horiz-adv-x="600" 
d="M365 190v-190h-130v190h-190v116h190v190h130v-190h190v-116h-190z" />
    <glyph glyph-name="comma" unicode="," horiz-adv-x="282" 
d="M120 -166l-114 34l89 287l141 -41z" />
    <glyph glyph-name="hyphen" unicode="-" horiz-adv-x="340" 
d="M39 233v116h262v-116h-262z" />
    <glyph glyph-name="period" unicode="." horiz-adv-x="282" 
d="M240 81q0 -38 -28.5 -65t-70.5 -27t-70.5 27t-28.5 65q0 19 7.5 35.5t21 29.5t31.5 20.5t39 7.5t39 -7.5t31.5 -20.5t21 -29.5t7.5 -35.5z" />
    <glyph glyph-name="slash" unicode="/" horiz-adv-x="282" 
d="M92 0h-103l201 667h103z" />
    <glyph glyph-name="zero" unicode="0" horiz-adv-x="564" 
d="M364 344q0 22 -2.5 58.5t-10.5 70.5t-24.5 59t-44.5 25t-44.5 -25t-24.5 -59t-10.5 -70.5t-2.5 -58.5q0 -16 0.5 -40.5t3.5 -52t8 -54.5t14 -49t22.5 -35.5t33.5 -13.5q19 0 32.5 13.5t23 35.5t14.5 49t8 54.5t3.5 52t0.5 40.5zM522 344q0 -56 -7 -118t-31.5 -115
t-72 -87.5t-129.5 -34.5q-55 0 -94 16t-66 43t-42.5 62.5t-24 75t-11 80t-2.5 78.5q0 53 9 110t35 104.5t73 78t123 30.5q77 0 124 -30t73 -77.5t34.5 -104.5t8.5 -111z" />
    <glyph glyph-name="one" unicode="1" horiz-adv-x="564" 
d="M86 0v111h143v419l-154 -86l-9 121l167 91h154v-545h131v-111h-432z" />
    <glyph glyph-name="two" unicode="2" horiz-adv-x="564" 
d="M56 0v74q0 51 20.5 91t51 73t66.5 61.5t66.5 57t51 58.5t20.5 66q0 35 -21.5 55.5t-66.5 20.5q-29 0 -61 -5t-80 -30l-35 106q45 23 99 31t103 8q47 0 87 -10.5t69.5 -32t46.5 -55.5t17 -80q0 -45 -20.5 -84.5t-51 -74.5t-66.5 -65l-66.5 -57t-51 -51t-20.5 -46h284v-111
h-442z" />
    <glyph glyph-name="three" unicode="3" horiz-adv-x="564" 
d="M487 197q0 -103 -68 -155.5t-193 -52.5q-16 0 -39 2t-47 5t-46.5 8t-37.5 11l11 113q38 -18 78 -23.5t65 -5.5q66 0 92.5 28.5t26.5 79.5q0 34 -28 57t-73 23h-101v110h103q46 0 68 24.5t22 59.5q0 32 -22 54t-67 22q-37 0 -72 -5.5t-73 -20.5l-20 110q45 14 92.5 20
t92.5 6q47 0 87.5 -10t70.5 -31t47.5 -53.5t17.5 -77.5q0 -32 -13 -56.5t-32 -42t-41.5 -28t-40.5 -14.5q26 -5 51 -17.5t45 -32.5t32 -47t12 -60z" />
    <glyph glyph-name="four" unicode="4" horiz-adv-x="564" 
d="M344 656l-37.5 -103.5l-39 -103l-37.5 -96.5l-34 -85h103v86h153v-86h74v-105h-74v-163h-153v163h-267v61l41 100l42.5 108.5l42.5 112.5l41 111h145z" />
    <glyph glyph-name="five" unicode="5" horiz-adv-x="564" 
d="M495 220q0 -107 -70 -169t-215 -62q-26 0 -62 5t-86 19l12 113q43 -17 79.5 -21.5t58.5 -4.5q63 0 93 32t30 83q0 45 -29 73t-83 28q-29 0 -65 -4t-79 -13l12 357h373v-111h-237l-2 -131q11 2 29.5 3.5t36.5 1.5q41 0 78 -12.5t65 -37t44.5 -62t16.5 -87.5z" />
    <glyph glyph-name="six" unicode="6" horiz-adv-x="564" 
d="M355 202q0 22 -3.5 42t-12 35.5t-22.5 24.5t-36 9q-32 0 -53 -31t-21 -80q0 -20 3.5 -41t12 -38t22.5 -28t36 -11t36.5 9.5t22.5 26t11.5 38t3.5 44.5zM513 205q0 -40 -14 -79t-42.5 -69.5t-72 -49t-103.5 -18.5q-63 0 -107 19.5t-71 52.5t-39.5 77t-12.5 93q0 68 21 135
t58 127.5t87 112t108 87.5l130 -69q-31 -19 -69 -52.5t-72.5 -72.5t-60.5 -80t-33 -76q26 36 59 50.5t66 14.5q44 0 75.5 -15t52 -42t30.5 -64.5t10 -81.5z" />
    <glyph glyph-name="seven" unicode="7" horiz-adv-x="564" 
d="M500 589q-30 -70 -61 -151l-62 -163.5l-61 -162l-56 -145.5l-149 58l54 131.5l59 138.5l59 133.5l53 116.5h-279v111h443v-67v0z" />
    <glyph glyph-name="eight" unicode="8" horiz-adv-x="564" 
d="M361 196q0 22 -4.5 41.5t-14 34.5t-24.5 23.5t-36 8.5q-43 0 -61 -31.5t-18 -76.5q0 -21 4 -41t13 -36t24 -25.5t38 -9.5q25 0 40.5 9.5t24 25.5t11.5 36t3 41zM349 484q0 17 -3.5 33t-11.5 28t-21 19.5t-31 7.5q-36 0 -51.5 -26.5t-15.5 -61.5q0 -16 3 -32.5t11 -30.5
t20.5 -23t32.5 -9q19 0 31.5 8t20.5 21.5t11.5 30.5t3.5 35zM515 184q0 -41 -16.5 -77t-47.5 -62t-74 -41t-95 -15q-51 0 -93.5 13t-73.5 38t-48.5 61.5t-17.5 82.5q0 37 13 66.5t32 50.5t41.5 34t42.5 18q-15 6 -34 17t-36.5 28.5t-29 42t-11.5 57.5q0 40 17.5 71.5t47 53
t68.5 33t82 11.5q44 0 83 -10.5t68.5 -32t46.5 -53t17 -73.5q0 -35 -12.5 -60t-29.5 -41.5t-36.5 -26.5t-32.5 -14q23 -9 46 -22.5t41.5 -33.5t30 -48.5t11.5 -67.5z" />
    <glyph glyph-name="nine" unicode="9" horiz-adv-x="564" 
d="M357 461q0 20 -3.5 40t-12 35.5t-22.5 25.5t-36 10q-20 0 -34 -9.5t-23 -25t-13 -35.5t-4 -41q0 -22 3.5 -43.5t12 -38t22.5 -26.5t36 -10q16 0 29.5 9.5t23.5 25.5t15.5 37.5t5.5 45.5zM513 425q0 -68 -20.5 -134.5t-56.5 -126.5t-85.5 -111.5t-106.5 -89.5l-135 69
q31 19 69 52.5t72.5 72.5t60.5 80t33 76q-26 -36 -59 -50.5t-66 -14.5q-44 0 -76 15t-52.5 41.5t-30 63.5t-9.5 81q0 42 15 81.5t44 69.5t72.5 48.5t100.5 18.5q63 0 107 -19.5t71 -52.5t39.5 -77t12.5 -93z" />
    <glyph glyph-name="colon" unicode=":" horiz-adv-x="282" 
d="M240 81q0 -38 -28.5 -65t-70.5 -27t-70.5 27t-28.5 65q0 19 7.5 35.5t21 29.5t31.5 20.5t39 7.5t39 -7.5t31.5 -20.5t21 -29.5t7.5 -35.5zM240 412q0 -38 -28.5 -65t-70.5 -27t-70.5 27t-28.5 65q0 19 7.5 35.5t21 29.5t31.5 20.5t39 7.5t39 -7.5t31.5 -20.5t21 -29.5
t7.5 -35.5z" />
    <glyph glyph-name="semicolon" unicode=";" horiz-adv-x="282" 
d="M120 -166l-114 34l89 287l141 -41zM240 412q0 -38 -28.5 -65t-70.5 -27t-70.5 27t-28.5 65q0 19 7.5 35.5t21 29.5t31.5 20.5t39 7.5t39 -7.5t31.5 -20.5t21 -29.5t7.5 -35.5z" />
    <glyph glyph-name="less" unicode="&#x3c;" horiz-adv-x="600" 
d="M45 194v107l510 195v-125l-362 -124l362 -122v-125z" />
    <glyph glyph-name="equal" unicode="=" horiz-adv-x="600" 
d="M45 82v116h510v-116h-510zM45 298v116h510v-116h-510z" />
    <glyph glyph-name="greater" unicode="&#x3e;" horiz-adv-x="600" 
d="M45 0v125l362 124l-362 122v125l510 -194v-107z" />
    <glyph glyph-name="question" unicode="?" horiz-adv-x="414" 
d="M281 80q0 -18 -7.5 -34.5t-21 -29t-31.5 -20t-38 -7.5t-38 7.5t-31.5 20t-21 29t-7.5 34.5t7.5 35t21 29.5t31.5 20t38 7.5t38 -7.5t31.5 -20t21 -29.5t7.5 -35zM390 523q0 -45 -21.5 -76t-47 -56t-47 -49t-21.5 -56v-62h-140q0 20 -0.5 36t-0.5 30q0 42 18.5 70.5t41 52
t41 47.5t18.5 57q0 56 -53 56q-20 0 -52.5 -6t-63.5 -23l-32 100q16 7 37.5 13.5t44.5 11t46.5 7t45.5 2.5q88 0 137 -38t49 -117z" />
    <glyph glyph-name="at" unicode="@" horiz-adv-x="942" 
d="M539 333q-5 1 -11 1h-8q-31 0 -56.5 -17t-43.5 -44t-28 -61t-10 -67q0 -10 1.5 -22t6 -22t13 -16.5t23.5 -6.5q16 0 29 11t23 28.5t17.5 38.5t12.5 42l31 135v0zM882 286q0 -61 -17 -113.5t-50 -90.5t-82 -60t-113 -22q-53 0 -80 16.5t-32 42.5q-24 -29 -52 -44t-72 -15
q-58 0 -93 39t-35 100q0 45 16.5 94t51 90.5t88 68t126.5 26.5q18 0 38 -3t38 -7t32.5 -8.5t21.5 -6.5l-52 -229l-5.5 -21t-3.5 -30q0 -3 1 -9t4.5 -12t11 -10t19.5 -4q30 0 51.5 17.5t35 46.5t20 66.5t6.5 77.5q0 64 -20 111t-55 78t-83.5 46t-106.5 15q-70 0 -126.5 -25.5
t-96 -69.5t-61 -105t-21.5 -131q0 -68 18 -124.5t54 -97t90.5 -63t127.5 -22.5q32 0 66 5t67 13t62.5 18t52.5 20l28 -97q-63 -25 -132.5 -40t-160.5 -15q-98 0 -172.5 29.5t-125 83t-76 127.5t-25.5 163q0 88 32 164.5t91 133.5t141.5 90t183.5 33q81 0 149.5 -24.5
t118.5 -69t78 -107.5t28 -139z" />
    <glyph glyph-name="A" unicode="A" horiz-adv-x="614" 
d="M303 548l-67 -286h135zM434 0l-36 151h-188l-36 -151h-164l195 667h204l195 -667h-170z" />
    <glyph glyph-name="B" unicode="B" horiz-adv-x="591" 
d="M384 206q0 40 -25 62t-63 22h-58v-178h60q47 0 66.5 26.5t19.5 67.5zM365 485q0 36 -22 53.5t-60 17.5h-45v-158h44q42 0 62.5 22.5t20.5 64.5zM547 195q0 -48 -17.5 -84.5t-47.5 -61t-70 -37t-85 -12.5h-251v667h244q41 0 78 -10t65 -30.5t44.5 -51t16.5 -72.5
q0 -61 -32.5 -96.5t-84.5 -52.5q29 -5 54.5 -18t44.5 -33.5t30 -47.5t11 -60z" />
    <glyph glyph-name="C" unicode="C" horiz-adv-x="544" 
d="M480 540q-22 8 -44.5 13t-45.5 5q-48 0 -81.5 -14.5t-54.5 -42t-30.5 -67.5t-9.5 -90q0 -54 7 -97.5t26 -74t52.5 -47t87.5 -16.5q26 0 50.5 5t49.5 15l2 -124q-32 -9 -66 -12.5t-67 -3.5q-88 0 -147.5 24t-95.5 70t-51.5 111.5t-15.5 149.5q0 69 20 130t60 106.5
t99 71.5t137 26q59 0 92 -6t56 -13z" />
    <glyph glyph-name="D" unicode="D" horiz-adv-x="650" 
d="M436 344q0 34 -6.5 70.5t-21.5 65.5t-40 48t-62 19h-68v-427h69q34 0 58.5 20t40.5 52t23 72t7 80zM604 344q0 -68 -15 -130.5t-48 -110t-85 -75.5t-126 -28h-254v667h248q77 0 130.5 -27.5t86.5 -72.5t48 -103t15 -120z" />
    <glyph glyph-name="E" unicode="E" horiz-adv-x="522" 
d="M76 0v667h390v-114h-229v-153h211v-112h-211v-173h241v-115h-402z" />
    <glyph glyph-name="F" unicode="F" horiz-adv-x="502" 
d="M237 547v-155h211v-120h-211v-272h-161v667h390v-120h-229z" />
    <glyph glyph-name="G" unicode="G" horiz-adv-x="638" 
d="M583 26q-27 -10 -52 -17t-52.5 -11.5t-59.5 -6.5t-72 -2q-85 0 -142.5 28.5t-93 77t-50.5 113t-15 136.5q0 69 20.5 130t62.5 106t106 71.5t150 26.5q78 0 121 -7.5t69 -16.5l-26 -115q-60 25 -152 25q-50 0 -85 -15.5t-56.5 -44t-31.5 -69t-10 -89.5t6 -93.5t22.5 -78.5
t45.5 -54t76 -20q23 0 37.5 3t27.5 8v162h-91v110h245v-357v0z" />
    <glyph glyph-name="H" unicode="H" horiz-adv-x="648" 
d="M410 0v286h-172v-286h-162v667h162v-265h172v265h162v-667h-162z" />
    <glyph glyph-name="I" unicode="I" horiz-adv-x="314" 
d="M76 0v667h162v-667h-162z" />
    <glyph glyph-name="J" unicode="J" horiz-adv-x="434" 
d="M358 49q0 -44 -11.5 -81.5t-37 -64.5t-65.5 -42.5t-97 -15.5q-42 0 -80.5 5t-64.5 14l22 112q27 -8 46.5 -9.5t38.5 -1.5q50 0 68.5 22t18.5 53v513h-159v114h321v-618z" />
    <glyph glyph-name="K" unicode="K" horiz-adv-x="594" 
d="M403 0l-165 318v-318h-162v667h162v-278l162 278h180l-190 -308l199 -359h-186z" />
    <glyph glyph-name="L" unicode="L" horiz-adv-x="466" 
d="M76 0v667h162v-544h209v-123h-371z" />
    <glyph glyph-name="M" unicode="M" horiz-adv-x="776" 
d="M581 0l-33 491l-93 -491h-140l-94 491l-32 -491h-154l78 667h187l89 -503l87 503h187l78 -667h-160z" />
    <glyph glyph-name="N" unicode="N" horiz-adv-x="668" 
d="M372 0l-158 491v-491h-138v667h220l158 -491v491h138v-667h-220z" />
    <glyph glyph-name="O" unicode="O" horiz-adv-x="688" 
d="M474 343q0 32 -4.5 70.5t-18.5 72.5t-39.5 56.5t-67.5 22.5q-41 0 -66.5 -23t-39.5 -56.5t-19 -72.5t-5 -70q0 -33 3.5 -74.5t17 -78t39.5 -62t70 -25.5t69.5 25.5t39 62t17.5 78t4 74.5zM642 344q0 -74 -16 -138.5t-51.5 -112.5t-92 -76t-138.5 -28q-83 0 -140 27.5
t-92 75.5t-50.5 112.5t-15.5 139.5q0 69 18.5 130t56 106.5t93 71.5t130.5 26q79 0 135.5 -25t92.5 -69t53 -105.5t17 -134.5z" />
    <glyph glyph-name="P" unicode="P" horiz-adv-x="562" 
d="M371 459q0 36 -17 62t-58 26h-58v-175h52q42 0 61.5 22.5t19.5 64.5zM537 459q0 -48 -17.5 -86.5t-49 -65t-74 -40.5t-92.5 -14h-66v-253h-162v667h242q48 0 88 -14.5t69.5 -41.5t45.5 -65.5t16 -86.5z" />
    <glyph glyph-name="Q" unicode="Q" horiz-adv-x="688" 
d="M474 343q0 35 -5 74t-19.5 71.5t-40 54t-65.5 21.5t-65 -21.5t-39.5 -54t-20 -71.5t-5.5 -74q0 -39 4.5 -81.5t18.5 -77.5t39.5 -58t67.5 -23t68 23.5t39.5 59.5t18 78t4.5 79zM642 344q0 -52 -8.5 -103t-29 -95.5t-54.5 -79.5t-84 -55l82 -123l-157 -23l-75 125
q-80 5 -132.5 37t-83 81t-42.5 110.5t-12 125.5t16 124.5t52 107t92.5 74.5t137.5 28q82 0 139 -28t92.5 -74.5t51 -107t15.5 -124.5z" />
    <glyph glyph-name="R" unicode="R" horiz-adv-x="608" 
d="M372 472q0 36 -21.5 59t-63.5 23h-49v-176h38q46 0 71 24t25 70zM404 0q-14 24 -24 49l-21 50l-50 114q-10 22 -20.5 37.5t-36.5 15.5h-14v-266h-162v667h244q46 0 86 -11t69.5 -34t46.5 -59t17 -85q0 -45 -14 -75.5t-35 -50t-45 -30t-43 -17.5q25 -5 46 -27t32 -48
l57 -131q11 -26 23 -50t26 -49h-182z" />
    <glyph glyph-name="S" unicode="S" horiz-adv-x="526" 
d="M478 198q0 -56 -21.5 -95.5t-57.5 -64.5t-82 -37t-95 -12q-44 0 -88 3t-86 16l2 118q29 -14 64.5 -20.5t67.5 -6.5q23 0 46 3.5t41 13.5t29.5 28t11.5 46q0 35 -19.5 53.5t-48.5 32t-63 25t-63 32t-48.5 54t-19.5 90.5q0 51 20.5 88.5t54 62.5t77 37.5t89.5 12.5
q43 0 84.5 -5t83.5 -16l-29 -114q-28 12 -58 17.5t-61 5.5q-20 0 -38 -3.5t-31.5 -12t-21.5 -23.5t-8 -38q0 -32 20 -50t49.5 -31.5t64.5 -27t64.5 -35t49.5 -56.5t20 -91z" />
    <glyph glyph-name="T" unicode="T" horiz-adv-x="474" 
d="M318 544v-544h-162v544h-144v123h450v-123h-144z" />
    <glyph glyph-name="U" unicode="U" horiz-adv-x="650" 
d="M582 241q0 -60 -18 -107t-51.5 -79.5t-81 -49t-106.5 -16.5q-122 0 -189.5 65.5t-67.5 186.5v426h162v-416q0 -30 4 -56t15 -45t29 -30t47 -11q27 0 45 11t29.5 30t16 45t4.5 56v416h162v-426v0z" />
    <glyph glyph-name="V" unicode="V" horiz-adv-x="588" 
d="M393 0h-198l-188 667h170l120 -536l120 536h164z" />
    <glyph glyph-name="W" unicode="W" horiz-adv-x="814" 
d="M668 0h-171l-93 513l-87 -513h-171l-130 667h167l64 -495l83 495h160l86 -495l61 495h161z" />
    <glyph glyph-name="X" unicode="X" horiz-adv-x="564" 
d="M384 0l-109 248l-100 -248h-166l182 340l-158 327h166l93 -223l77 223h162l-158 -315l182 -352h-171z" />
    <glyph glyph-name="Y" unicode="Y" horiz-adv-x="540" 
d="M351 246v-246h-162v246l-191 421h168l109 -293l105 293h162z" />
    <glyph glyph-name="Z" unicode="Z" horiz-adv-x="506" 
d="M30 0v96l254 454h-242v117h428v-96l-254 -453h260v-118h-446z" />
    <glyph glyph-name="bracketleft" unicode="[" 
d="M84 -96v859h210v-96h-90v-667h90v-96h-210z" />
    <glyph glyph-name="backslash" unicode="\" horiz-adv-x="282" 
d="M190 0l-201 667h103l201 -667h-103z" />
    <glyph glyph-name="bracketright" unicode="]" 
d="M24 -96v96h90v667h-90v96h210v-859h-210z" />
    <glyph glyph-name="asciicircum" unicode="^" horiz-adv-x="564" 
d="M351 379l-71 171l-70 -171h-132l156 288h96l156 -288h-135z" />
    <glyph glyph-name="underscore" unicode="_" horiz-adv-x="500" 
d="M0 -125v50h500v-50h-500z" />
    <glyph glyph-name="grave" unicode="`" 
d="M140 580l-105 136h132l73 -136h-100z" />
    <glyph glyph-name="a" unicode="a" horiz-adv-x="506" 
d="M295 213q-8 3 -19 5t-26 2q-18 0 -30.5 -6.5t-20 -17t-10.5 -23.5t-3 -27q0 -25 11.5 -42t37.5 -17q29 0 44.5 17.5t15.5 41.5v67zM310 0l-9 58q-22 -29 -48 -48t-72 -19q-72 0 -111 39t-39 107q0 73 50 116.5t142 43.5q30 0 44 -2.5t28 -4.5v57q0 29 -20 43.5t-56 14.5
q-61 0 -121 -26l-22 97q39 17 89 23t93 6q94 0 140 -37t46 -103v-272q0 -23 3 -46.5l6 -46.5h-143z" />
    <glyph glyph-name="b" unicode="b" horiz-adv-x="544" 
d="M349 254q0 17 -1.5 43t-8 50t-20.5 41.5t-39 17.5q-21 0 -34 -11t-20.5 -27t-10.5 -35t-3 -35v-101q0 -18 2.5 -37t10 -34.5t20.5 -25t33 -9.5q27 0 41.5 19.5t21 45.5t7.5 53.5t1 44.5zM508 254q0 -46 -8 -92.5t-28.5 -84.5t-56.5 -62t-91 -24q-37 0 -67.5 17t-47.5 51
l-9 -59h-138v712h153v-276q19 35 50.5 52t70.5 17q55 0 88.5 -22.5t52 -58.5t25 -81t6.5 -89z" />
    <glyph glyph-name="c" unicode="c" horiz-adv-x="424" 
d="M398 10q-21 -9 -58 -14t-78 -5q-66 0 -110 23.5t-69.5 61t-36 85t-10.5 94.5q0 48 15.5 93.5t46.5 80t77 55.5t108 21q37 0 66.5 -4.5t46.5 -11.5l-23 -98q-15 6 -32 8.5t-41 2.5q-32 0 -52 -13t-32 -34t-16.5 -47.5t-4.5 -52.5q0 -33 4.5 -62t17.5 -50.5t35 -34.5
t57 -13q16 0 33 4t32 12l24 -101v0z" />
    <glyph glyph-name="d" unicode="d" horiz-adv-x="544" 
d="M332 299q0 16 -3.5 34.5t-11.5 35t-21 27.5t-33 11q-25 0 -38.5 -19.5t-20 -46.5t-8 -55t-1.5 -45q0 -18 0.5 -43.5t6.5 -49t19.5 -40.5t39.5 -17q20 0 33.5 10.5t22 26t12 34t3.5 35.5v102zM338 0l-9 58q-46 -67 -127 -67q-55 0 -87.5 25t-50 63.5t-23 85t-5.5 89.5
q0 46 9 91t30.5 80.5t57.5 57.5t90 22q33 0 62.5 -15t43.5 -47v269h153v-712h-144z" />
    <glyph glyph-name="e" unicode="e" horiz-adv-x="495" 
d="M313 303q0 15 -2 33.5t-8.5 35t-18.5 27.5t-32 11t-31.5 -11t-18 -27.5t-8.5 -35t-2 -33.5h121v0zM192 212q0 -55 30 -87t85 -32q28 0 58.5 6.5t55.5 19.5l22 -103q-38 -16 -85.5 -20.5t-88.5 -4.5q-59 0 -103 20.5t-73 56.5t-43 84t-14 103q0 48 12.5 93.5t39 80
t67 55.5t97.5 21q62 0 102.5 -19t64.5 -52.5t33.5 -79.5t9.5 -99v-43h-270z" />
    <glyph glyph-name="f" unicode="f" horiz-adv-x="344" 
d="M326 606q-18 3 -25.5 4t-20.5 1q-19 0 -29.5 -14t-10.5 -37v-64h84v-103h-84v-393h-153v393h-72v103h72v79q0 60 41 98.5t116 38.5q32 0 59.5 -3t44.5 -8z" />
    <glyph glyph-name="g" unicode="g" horiz-adv-x="544" 
d="M332 299q0 16 -3.5 34.5t-11.5 34.5t-21 27t-33 11q-24 0 -38 -17.5t-21 -42.5t-9 -51.5t-1 -45.5q1 -27 2.5 -53.5t8.5 -47.5t20 -33.5t36 -12.5q20 0 33.5 10.5t22 26.5t12 34.5t3.5 34.5v91zM482 17q0 -54 -20.5 -94.5t-55 -67.5t-80 -40t-94.5 -13q-42 0 -87.5 4
t-84.5 18l29 107q26 -12 55.5 -18t58.5 -6q21 0 43.5 3.5t41 13t30 28t11.5 48.5v64q-22 -35 -55.5 -48t-72.5 -14q-48 -1 -80 22.5t-50.5 60t-26.5 81.5t-8 88q0 46 9 91t30.5 80.5t57.5 57.5t90 22q33 0 62.5 -15t43.5 -47l9 53h144v-479v0z" />
    <glyph glyph-name="h" unicode="h" horiz-adv-x="547" 
d="M333 0v336q0 27 -11 47.5t-45 20.5q-18 0 -30 -8t-19 -21.5t-10 -30.5t-3 -35v-309h-153v712h153v-279q10 16 21 29.5t25.5 23t34 14.5t46.5 5q37 0 64 -12t45 -33t26.5 -49.5t8.5 -60.5v-350h-153z" />
    <glyph glyph-name="i" unicode="i" 
d="M95 0v394h-66v102h219v-496h-153zM256 648q0 -34 -26 -57.5t-64 -23.5t-64 23.5t-26 57.5t26 57.5t64 23.5t64 -23.5t26 -57.5z" />
    <glyph glyph-name="j" unicode="j" 
d="M248 -33q0 -83 -43 -124t-122 -41q-24 0 -46.5 2t-40.5 8l27 105q6 -2 13.5 -4t16.5 -2q26 0 34 23.5t8 59.5v400h-66v102h219v-529v0zM256 648q0 -34 -26 -57.5t-64 -23.5t-64 23.5t-26 57.5t26 57.5t64 23.5t64 -23.5t26 -57.5z" />
    <glyph glyph-name="k" unicode="k" horiz-adv-x="488" 
d="M314 0l-100 226v-226h-152v712h152v-400l99 184h163l-131 -217l138 -279h-169z" />
    <glyph glyph-name="l" unicode="l" 
d="M296 1q-3 -2 -13.5 -4t-23 -3.5t-24.5 -2t-18 -0.5q-86 0 -120.5 33t-34.5 105v583h153v-542q0 -36 6.5 -56t27.5 -20q9 0 18.5 1.5t15.5 3.5l13 -98v0z" />
    <glyph glyph-name="m" unicode="m" horiz-adv-x="783" 
d="M568 0v338q0 27 -9 47t-38 20q-15 0 -25.5 -8t-16.5 -21.5t-8.5 -30t-2.5 -34.5v-311h-153v338q0 27 -9 47t-38 20q-15 0 -25.5 -8t-16.5 -21.5t-8.5 -30t-2.5 -34.5v-311h-153v496h136l9 -65q14 32 44 53t82 21q31 0 53 -7t36.5 -18t23.5 -24t14 -25q14 32 44 53t82 21
q35 0 60.5 -12t42 -33t24.5 -49.5t8 -60.5v-350h-153z" />
    <glyph glyph-name="n" unicode="n" horiz-adv-x="548" 
d="M333 0v336q0 27 -10.5 48t-44.5 21q-18 0 -30.5 -8.5t-19.5 -22t-10 -30.5t-3 -35v-309h-153v496h136l9 -65q15 32 47 53t88 21q37 0 64 -12t45 -33t26.5 -49.5t8.5 -60.5v-350h-153z" />
    <glyph glyph-name="o" unicode="o" horiz-adv-x="530" 
d="M335 254q0 22 -2 49t-9.5 50t-21.5 38.5t-37 15.5t-37 -15.5t-21.5 -38.5t-9.5 -50t-2 -49q0 -24 2 -52.5t9 -53t21 -41.5t38 -17t38 17t21 41.5t9 53t2 52.5zM494 255q0 -50 -11.5 -97t-38 -84.5t-70.5 -60t-109 -22.5q-67 0 -111 22t-70.5 59t-37 84.5t-10.5 98.5
q0 46 13.5 91t41 80t71 57t103.5 22q62 0 105.5 -21t71 -56t40 -80t12.5 -93z" />
    <glyph glyph-name="p" unicode="p" horiz-adv-x="544" 
d="M349 254q0 29 -2 56.5t-9 49.5t-21 35t-37 13q-17 0 -29.5 -9t-21 -24.5t-13 -35t-4.5 -40.5v-107q0 -49 17.5 -75.5t48.5 -26.5q27 0 41 15.5t21 39.5t8 53t1 56zM508 254q0 -50 -10 -97t-31.5 -84t-56.5 -59.5t-86 -22.5q-45 0 -70 17.5t-39 44.5v-251h-153v694h141
l9 -65q18 33 50 53.5t74 20.5q51 0 84.5 -20.5t53 -55t27 -80t7.5 -95.5z" />
    <glyph glyph-name="q" unicode="q" horiz-adv-x="544" 
d="M332 299q0 16 -3.5 34.5t-11.5 35t-21 27.5t-33 11q-27 0 -41 -19t-20 -45t-6.5 -54t-0.5 -47q0 -18 0.5 -43.5t6.5 -49.5t19.5 -41t39.5 -17q20 0 33.5 10.5t22 26t12 34t3.5 35.5v102zM329 -198v251q-23 -38 -54 -50t-73 -12q-53 0 -85.5 25.5t-50.5 64.5t-24 85t-6 88
q0 45 9 90t31 81t58 58t89 22q34 0 66 -16.5t46 -49.5l9 57h138v-694h-153z" />
    <glyph glyph-name="r" unicode="r" horiz-adv-x="379" 
d="M330 371q-8 2 -15.5 3.5t-15.5 1.5q-26 0 -42.5 -11t-25.5 -29t-12.5 -40.5t-3.5 -45.5v-250h-153v496h142l9 -64q23 39 51.5 56t67.5 17q7 0 18.5 -1.5t18.5 -4.5z" />
    <glyph glyph-name="s" unicode="s" horiz-adv-x="418" 
d="M386 160q0 -47 -17 -79.5t-45.5 -52.5t-66 -28.5t-79.5 -8.5q-37 0 -74 4.5t-72 17.5l28 100q27 -14 57.5 -18.5t60.5 -4.5q55 0 55 58q0 21 -14 33.5t-35 22t-45 19t-45 25t-35 40t-14 64.5q0 44 16.5 73.5t44.5 47t63.5 25t73.5 7.5q35 0 66.5 -4t65.5 -15l-29 -97
q-23 11 -50 14.5t-52 3.5q-22 0 -35.5 -13t-13.5 -35q0 -19 14 -31t35.5 -21.5l46 -19.5t46 -26t35.5 -40t14 -61z" />
    <glyph glyph-name="t" unicode="t" horiz-adv-x="364" 
d="M345 2q-20 -8 -52 -9.5t-67 -1.5q-64 0 -100.5 34.5t-36.5 103.5v263h-70v104h70v112l154 33v-145h95v-104h-95v-222q0 -42 12 -58t38 -16h22t21 5l9 -99v0z" />
    <glyph glyph-name="u" unicode="u" horiz-adv-x="540" 
d="M342 0l-9 65q-15 -32 -46.5 -53t-85.5 -21q-36 0 -63 12t-44 33t-25.5 49.5t-8.5 60.5v350h153v-334q0 -27 10 -46.5t43 -19.5t46 27.5t13 65.5v307h153v-496h-136z" />
    <glyph glyph-name="v" unicode="v" horiz-adv-x="470" 
d="M320 0h-170l-144 496h161l72 -367l70 367h155z" />
    <glyph glyph-name="w" unicode="w" horiz-adv-x="653" 
d="M531 0h-147l-58 356l-57 -356h-147l-112 496h151l46 -350l56 350h133l57 -350l45 350h145z" />
    <glyph glyph-name="x" unicode="x" horiz-adv-x="487" 
d="M310 0l-68 162l-71 -162h-162l162 257l-150 239h162l68 -142l59 142h156l-145 -240l157 -256h-168z" />
    <glyph glyph-name="y" unicode="y" horiz-adv-x="474" 
d="M305 -50q-10 -33 -24 -60.5t-35.5 -47t-51 -30t-70.5 -10.5q-24 0 -50 2.5t-44 7.5l27 103q10 -3 26.5 -5.5t26.5 -2.5q26 0 39.5 19t23.5 53l6 21l-169 496h161l80 -322l62 322h155z" />
    <glyph glyph-name="z" unicode="z" horiz-adv-x="420" 
d="M27 0v93l189 299h-177v104h348v-93l-189 -298h195v-105h-366z" />
    <glyph glyph-name="braceleft" unicode="{" 
d="M177 -96q-45 0 -69 26.5t-24 70.5v265q0 23 -9 41.5t-37 19.5v33q27 1 36.5 20t9.5 42v244q0 44 24 70.5t69 26.5h117v-96h-47q-21 0 -32 -7t-11 -31v-213q0 -26 -12 -43.5t-42 -28.5q30 -11 42 -28.5t12 -43.5v-234q0 -24 11 -31t32 -7h47v-96h-117z" />
    <glyph glyph-name="bar" unicode="|" horiz-adv-x="282" 
d="M85 -42v750h112v-750h-112z" />
    <glyph glyph-name="braceright" unicode="}" 
d="M280 327q-28 -1 -37 -19.5t-9 -41.5v-265q0 -44 -24 -70.5t-69 -26.5h-117v96h47q21 0 32 7t11 31v234q0 26 12 43.5t42 28.5q-30 11 -42 28.5t-12 43.5v213q0 24 -11 31t-32 7h-47v96h117q45 0 69 -26.5t24 -70.5v-244q0 -23 9.5 -42t36.5 -20v-33v0z" />
    <glyph glyph-name="asciitilde" unicode="~" horiz-adv-x="600" 
d="M569 330q-2 -29 -11 -57t-26 -50t-42.5 -35.5t-61.5 -13.5q-34 0 -67 8.5t-65 19t-62.5 19t-58.5 8.5q-18 0 -30.5 -13.5t-17.5 -44.5h-96q4 29 13 57t26 50t43 35.5t62 13.5q33 0 66 -8.5t65 -18.5t62.5 -18.5t58.5 -8.5q19 0 30.5 12.5t19.5 44.5h92v0z" />
    <glyph glyph-name="Euro" unicode="&#x20ac;" horiz-adv-x="564" 
d="M481 544q-21 7 -51 11t-48 4q-43 0 -72 -28.5t-42 -70.5h192l-20 -84h-189q-1 -8 -1.5 -16t-0.5 -16t0.5 -16t0.5 -16h173l-20 -84h-145q11 -58 41 -94.5t91 -36.5q23 0 47.5 5t43.5 13v-111q-22 -7 -50.5 -11t-60.5 -4q-65 0 -111.5 20t-78 53t-49.5 76t-27 90h-80
l20 84h51q0 8 -0.5 16t-0.5 16v16t1 16h-68l20 84h63q12 42 33.5 79.5t54.5 66t78.5 45t105.5 16.5q38 0 72.5 -6t55.5 -12z" />
    <glyph glyph-name="quotesinglbase" unicode="&#x201a;" horiz-adv-x="282" 
d="M120 -166l-114 34l89 287l141 -41z" />
    <glyph glyph-name="florin" unicode="&#x192;" horiz-adv-x="564" 
d="M470 557q-17 3 -24.5 4t-20.5 1q-20 0 -33 -14t-17 -33l-25 -115h84v-111h-107l-71 -341q-6 -27 -18.5 -53t-34.5 -46t-55.5 -32t-79.5 -12q-32 0 -59.5 3t-44.5 8l43 99q17 -3 25.5 -4t21.5 -1q20 0 32 14t16 33l68 332h-72v111h95l28 124q6 27 18.5 53t35 46t55 32
t79.5 12q32 0 59.5 -3t44.5 -8z" />
    <glyph glyph-name="quotedblbase" unicode="&#x201e;" horiz-adv-x="495" 
d="M120 -166l-114 34l89 287l141 -41zM333 -166l-114 34l89 287l141 -41z" />
    <glyph glyph-name="ellipsis" unicode="&#x2026;" horiz-adv-x="1000" 
d="M266 81q0 -38 -28.5 -65t-70.5 -27t-70.5 27t-28.5 65q0 19 7.5 35.5t21 29.5t31.5 20.5t39 7.5t39 -7.5t31.5 -20.5t21 -29.5t7.5 -35.5zM599 81q0 -38 -28.5 -65t-70.5 -27t-70.5 27t-28.5 65q0 19 7.5 35.5t21 29.5t31.5 20.5t39 7.5t39 -7.5t31.5 -20.5t21 -29.5
t7.5 -35.5zM932 81q0 -38 -28.5 -65t-70.5 -27t-70.5 27t-28.5 65q0 19 7.5 35.5t21 29.5t31.5 20.5t39 7.5t39 -7.5t31.5 -20.5t21 -29.5t7.5 -35.5z" />
    <glyph glyph-name="dagger" unicode="&#x2020;" horiz-adv-x="564" 
d="M345 355v-553h-126v553h-161v114h161v198h126v-198h161v-114h-161z" />
    <glyph glyph-name="daggerdbl" unicode="&#x2021;" horiz-adv-x="564" 
d="M345 0v-198h-126v198h-161v114h161v241h-161v114h161v198h126v-198h161v-114h-161v-241h161v-114h-161z" />
    <glyph glyph-name="circumflex" unicode="&#x2c6;" 
d="M208 580l-51 86l-51 -86h-107l94 136h132l94 -136h-111z" />
    <glyph glyph-name="perthousand" unicode="&#x2030;" horiz-adv-x="1269" 
d="M257 474q0 14 -1 33.5t-5 37t-13.5 30t-25.5 12.5q-17 0 -26 -12.5t-13 -30t-5 -37t-1 -33.5q0 -17 0.5 -39.5t4.5 -43t13 -35t27 -14.5q17 0 26.5 14.5t13.5 35t4.5 43t0.5 39.5zM720 202q0 14 -1 33.5t-5 37t-13.5 30t-25.5 12.5q-17 0 -26 -12.5t-13 -30t-5 -37
t-1 -33.5q0 -17 0.5 -39.5t4.5 -43.5t13 -35.5t27 -14.5q17 0 26.5 14.5t13.5 35t4.5 43.5t0.5 40zM1102 202q0 14 -1 33.5t-5 37t-13.5 30t-25.5 12.5q-17 0 -26 -12.5t-13 -30t-5 -37t-1 -33.5q0 -17 0.5 -39.5t4.5 -43.5t13 -35.5t27 -14.5q17 0 26.5 14.5t13.5 35
t4.5 43.5t0.5 40zM383 474q0 -31 -5.5 -68t-23 -69t-51.5 -53.5t-91 -21.5t-91 21t-52 53t-23 69t-5 69q0 31 7 65t25.5 62.5t52 47t86.5 18.5q54 0 87 -18.5t52 -47t25.5 -62.5t6.5 -65zM344 -24h-102l302 704h102zM846 202q0 -31 -5.5 -68t-23 -69.5t-51.5 -54t-91 -21.5
t-91 21.5t-52 53.5t-23 69t-5 69q0 31 7 65t25.5 62.5t52 47t86.5 18.5q54 0 87 -18.5t52 -47t25.5 -62.5t6.5 -65zM1228 202q0 -31 -5.5 -68t-23 -69.5t-51.5 -54t-91 -21.5t-91 21.5t-52 53.5t-23 69t-5 69q0 31 7 65t25.5 62.5t52 47t86.5 18.5q54 0 87 -18.5t52 -47
t25.5 -62.5t6.5 -65z" />
    <glyph glyph-name="Scaron" unicode="&#x160;" horiz-adv-x="526" 
d="M478 198q0 -56 -21.5 -95.5t-57.5 -64.5t-82 -37t-95 -12q-44 0 -88 3t-86 16l2 118q29 -14 64.5 -20.5t67.5 -6.5q23 0 46 3.5t41 13.5t29.5 28t11.5 46q0 35 -19.5 53.5t-48.5 32t-63 25t-63 32t-48.5 54t-19.5 90.5q0 51 20.5 88.5t54 62.5t77 37.5t89.5 12.5
q43 0 84.5 -5t83.5 -16l-29 -114q-28 12 -58 17.5t-61 5.5q-20 0 -38 -3.5t-31.5 -12t-21.5 -23.5t-8 -38q0 -32 20 -50t49.5 -31.5t64.5 -27t64.5 -35t49.5 -56.5t20 -91zM333 724h-132l-94 136h111l51 -86l51 86h107z" />
    <glyph glyph-name="guilsinglleft" unicode="&#x2039;" horiz-adv-x="282" 
d="M133 80l-137 178l137 178h150l-143 -178l143 -178h-150z" />
    <glyph glyph-name="OE" unicode="&#x152;" horiz-adv-x="915" 
d="M474 343q0 32 -4.5 70.5t-18.5 72.5t-39.5 56.5t-67.5 22.5q-41 0 -66.5 -23t-39.5 -56.5t-19 -72.5t-5 -70q0 -33 3.5 -74.5t17 -78t39.5 -62t70 -25.5t69.5 25.5t39 62t17.5 78t4 74.5zM474 0v53q-17 -24 -55 -44t-85 -20q-77 0 -132 27.5t-89.5 75.5t-50.5 112.5
t-16 139.5q0 69 19 130t56 106.5t90.5 71.5t122.5 26q43 0 81 -14t59 -48v51h385v-114h-229v-153h211v-112h-211v-173h241v-115h-397z" />
    <glyph glyph-name="Zcaron" unicode="&#x17d;" horiz-adv-x="506" 
d="M30 0v96l254 454h-242v117h428v-96l-254 -453h260v-118h-446zM320 724h-132l-94 136h111l51 -86l51 86h107z" />
    <glyph glyph-name="quoteleft" unicode="&#x2018;" horiz-adv-x="282" 
d="M187 500l-141 41l116 280l114 -34z" />
    <glyph glyph-name="quoteright" unicode="&#x2019;" horiz-adv-x="282" 
d="M160 500l-114 34l89 287l141 -41z" />
    <glyph glyph-name="quotedblleft" unicode="&#x201c;" horiz-adv-x="495" 
d="M187 500l-141 41l116 280l114 -34zM400 500l-141 41l116 280l114 -34z" />
    <glyph glyph-name="quotedblright" unicode="&#x201d;" horiz-adv-x="495" 
d="M160 500l-114 34l89 287l141 -41zM373 500l-114 34l89 287l141 -41z" />
    <glyph glyph-name="bullet" unicode="&#x2022;" horiz-adv-x="564" 
d="M403 311q0 -25 -9.5 -47.5t-26 -39.5t-38.5 -27t-47 -10t-47 10t-38.5 27t-26 39.5t-9.5 47.5t9.5 47.5t26 39.5t38.5 27t47 10t47 -10t38.5 -27t26 -39.5t9.5 -47.5z" />
    <glyph glyph-name="endash" unicode="&#x2013;" horiz-adv-x="500" 
d="M0 233v116h500v-116h-500z" />
    <glyph glyph-name="emdash" unicode="&#x2014;" horiz-adv-x="1000" 
d="M0 233v116h1000v-116h-1000z" />
    <glyph glyph-name="tilde" unicode="&#x2dc;" 
d="M316 714q0 -21 -5.5 -44t-17 -42.5t-29 -32.5t-42.5 -13q-18 0 -34 6.5t-31 14.5t-28.5 14.5t-25.5 6.5q-14 0 -22 -15t-8 -27h-71q1 20 6.5 43t17 43t29 33t41.5 13q18 0 35 -6.5t32 -14.5t28.5 -14.5t25.5 -6.5q15 0 21 15t7 27h71v0z" />
    <glyph glyph-name="trademark" unicode="&#x2122;" horiz-adv-x="827" 
d="M219 584v-317h-118v317h-93v83h304v-83h-93zM687 267l-19 256l-55 -256h-95l-56 256l-18 -256h-113l58 400h120l59 -274l57 274h120l59 -400h-117z" />
    <glyph glyph-name="scaron" unicode="&#x161;" horiz-adv-x="418" 
d="M386 160q0 -47 -17 -79.5t-45.5 -52.5t-66 -28.5t-79.5 -8.5q-37 0 -74 4.5t-72 17.5l28 100q27 -14 57.5 -18.5t60.5 -4.5q55 0 55 58q0 21 -14 33.5t-35 22t-45 19t-45 25t-35 40t-14 64.5q0 44 16.5 73.5t44.5 47t63.5 25t73.5 7.5q35 0 66.5 -4t65.5 -15l-29 -97
q-23 11 -50 14.5t-52 3.5q-22 0 -35.5 -13t-13.5 -35q0 -19 14 -31t35.5 -21.5l46 -19.5t46 -26t35.5 -40t14 -61zM284 580h-132l-94 136h111l51 -86l51 86h107z" />
    <glyph glyph-name="guilsinglright" unicode="&#x203a;" horiz-adv-x="282" 
d="M149 80h-150l143 178l-143 178h150l137 -178z" />
    <glyph glyph-name="oe" unicode="&#x153;" horiz-adv-x="788" 
d="M335 254q0 22 -2 49t-9.5 50t-21.5 38.5t-37 15.5t-37 -15.5t-21.5 -38.5t-9.5 -50t-2 -49q0 -24 2 -52.5t9 -53t21 -41.5t38 -17t38 17t21 41.5t9 53t2 52.5zM606 303q0 15 -2 33.5t-8.5 35t-18.5 27.5t-32 11t-31.5 -11t-18 -27.5t-8.5 -35t-2 -33.5h121v0zM485 212
q0 -55 30 -87t85 -32q28 0 58.5 6.5t55.5 19.5l22 -103q-33 -14 -72.5 -19.5t-81.5 -5.5q-55 0 -99 19.5t-71 57.5q-9 -12 -22.5 -25.5t-32 -25t-41.5 -19t-51 -7.5q-67 0 -111 22t-70.5 59t-37 84.5t-10.5 98.5q0 46 13.5 91t41 80t71 57t103.5 22q29 0 53 -7t42.5 -18.5
t31.5 -26t21 -28.5q7 14 19 28.5t29 26t38.5 18.5t45.5 7q62 0 102.5 -19t64.5 -52.5t33.5 -79.5t9.5 -99v-43h-270z" />
    <glyph glyph-name="zcaron" unicode="&#x17e;" horiz-adv-x="420" 
d="M27 0v93l189 299h-177v104h348v-93l-189 -298h195v-105h-366zM279 580h-132l-94 136h111l51 -86l51 86h107z" />
    <glyph glyph-name="Ydieresis" unicode="&#x178;" horiz-adv-x="540" 
d="M351 246v-246h-162v246l-191 421h168l109 -293l105 293h162zM242 792q0 -30 -23.5 -52.5t-56.5 -22.5t-56.5 22.5t-23.5 52.5t23.5 52.5t56.5 22.5t56.5 -22.5t23.5 -52.5zM456 792q0 -30 -23.5 -52.5t-56.5 -22.5t-56.5 22.5t-23.5 52.5t23.5 52.5t56.5 22.5t56.5 -22.5
t23.5 -52.5z" />
    <glyph glyph-name="uni00A0" unicode="&#xa0;" horiz-adv-x="282" 
 />
    <glyph glyph-name="exclamdown" unicode="&#xa1;" horiz-adv-x="324" 
d="M85 -198v468h153v-468h-153zM260 414q0 -18 -7.5 -35t-21 -29.5t-31.5 -20t-38 -7.5t-38 7.5t-31.5 20t-21 29.5t-7.5 35t7.5 34.5t21 29t31.5 20t38 7.5t38 -7.5t31.5 -20t21 -29t7.5 -34.5z" />
    <glyph glyph-name="cent" unicode="&#xa2;" horiz-adv-x="564" 
d="M455 89q-17 -8 -43.5 -12t-57.5 -6v-71h-100v77q-48 11 -81 37.5t-53.5 62t-29.5 77t-9 82.5q0 40 12 78t34.5 70t55.5 56.5t75 36.5v79h100v-68q31 -1 55.5 -5.5t39.5 -10.5l-23 -103q-15 6 -32 8.5t-41 2.5q-32 0 -54.5 -12.5t-36.5 -33t-20 -46t-6 -52.5
q0 -33 5.5 -62t19.5 -50t38.5 -33.5t62.5 -12.5q16 0 33 4t32 12l24 -105v0z" />
    <glyph glyph-name="sterling" unicode="&#xa3;" horiz-adv-x="564" 
d="M481 539q-26 7 -54 12.5t-57 5.5q-48 0 -68.5 -24.5t-20.5 -68.5q0 -18 3.5 -39l6.5 -39h130v-84h-117l8 -37.5t4 -38.5q0 -33 -11 -61t-31 -54h220v-111h-429v111h64q11 22 19.5 47t8.5 50q0 21 -4.5 47t-7.5 47h-68v84h57q-3 17 -6 42t-3 45q0 100 56.5 147t159.5 47
q57 0 93.5 -5.5t70.5 -14.5z" />
    <glyph glyph-name="currency" unicode="&#xa4;" horiz-adv-x="600" 
d="M398 344q0 24 -8 45t-21.5 37t-31.5 25.5t-38 9.5t-38 -9.5t-31 -25t-20.5 -37t-7.5 -45.5t7.5 -45t20.5 -37t31 -25.5t38 -9.5t38 9.5t31.5 25.5t21.5 37t8 45zM467 91l-61 67q-25 -17 -50.5 -26t-54.5 -9q-30 0 -56 8.5t-52 25.5l-60 -65l-65 71l60 66q-15 28 -25 55
t-10 60q0 32 9.5 60t25.5 56l-61 66l65 72l62 -67q26 17 50.5 25.5t54.5 8.5q31 0 56.5 -8t51.5 -25l60 65l65 -72l-60 -64q14 -28 24.5 -56.5t10.5 -60.5t-10 -60.5t-25 -54.5l61 -66z" />
    <glyph glyph-name="yen" unicode="&#xa5;" horiz-adv-x="564" 
d="M401 358h90v-84h-128v-76h128v-84h-128v-114h-162v114h-128v84h128v76h-128v84h90l-141 309h168l97 -275l93 275h162z" />
    <glyph glyph-name="brokenbar" unicode="&#xa6;" horiz-adv-x="282" 
d="M85 -42v250h112v-250h-112zM85 458v250h112v-250h-112z" />
    <glyph glyph-name="section" unicode="&#xa7;" horiz-adv-x="564" 
d="M351 320q0 16 -11.5 29t-28.5 23.5t-35.5 18t-31.5 13.5q-17 -14 -24 -26.5t-7 -31.5q0 -12 10 -23.5t25 -22t33.5 -19t35.5 -15.5q15 7 24.5 22t9.5 32zM481 350q0 -30 -9.5 -52.5t-24 -38t-31.5 -25.5t-33 -14q23 -16 40 -37t17 -53q0 -65 -49 -103t-138 -38
q-15 0 -34.5 1t-40.5 3.5t-41.5 7t-36.5 12.5l33 99q26 -15 54 -21t51 -6q26 0 38.5 10.5t12.5 27.5q0 16 -15.5 28t-38 24t-49.5 25t-49.5 30t-38 40t-15.5 55q0 24 10 43.5t24.5 34t31.5 24.5t31 15q-19 10 -38.5 33t-19.5 61q0 62 45 96.5t127 34.5q40 0 75.5 -5
t67.5 -16l-31 -93q-23 11 -47.5 15t-51.5 4q-43 0 -43 -33q0 -13 16 -24.5t40 -23l52.5 -25t52.5 -30t40 -37.5t16 -49z" />
    <glyph glyph-name="dieresis" unicode="&#xa8;" 
d="M132 648q0 -30 -23.5 -52.5t-56.5 -22.5t-56.5 22.5t-23.5 52.5t23.5 52.5t56.5 22.5t56.5 -22.5t23.5 -52.5zM346 648q0 -30 -23.5 -52.5t-56.5 -22.5t-56.5 22.5t-23.5 52.5t23.5 52.5t56.5 22.5t56.5 -22.5t23.5 -52.5z" />
    <glyph glyph-name="copyright" unicode="&#xa9;" horiz-adv-x="756" 
d="M470 430q-20 7 -33 9.5t-25 2.5q-52 0 -73.5 -26t-21.5 -77q0 -55 18 -84.5t75 -29.5q14 0 28.5 3t38.5 11l1 -82q-26 -6 -46.5 -7.5t-39.5 -1.5q-54 0 -90 13t-58.5 38t-32 60.5t-9.5 79.5q0 37 12.5 70t37 57.5t60.5 38.5t84 14q32 0 52.5 -3t43.5 -9zM623 344
q0 48 -18.5 94t-51 81.5t-77.5 57t-98 21.5t-98 -21t-77.5 -56.5t-51 -81.5t-18.5 -95q0 -59 18.5 -109.5t51 -87t77.5 -57.5t98 -21t98 21t77.5 58t51 87t18.5 109zM710 344q0 -75 -25 -140t-69.5 -112.5t-105 -75t-132.5 -27.5q-71 0 -132 27t-105.5 74t-69.5 112t-25 142
q0 66 25 126t69.5 106.5t105.5 74t132 27.5t132 -27.5t105.5 -73.5t69.5 -106.5t25 -126.5z" />
    <glyph glyph-name="ordfeminine" unicode="&#xaa;" horiz-adv-x="423" 
d="M228 487q-10 2 -20 2q-19 0 -25.5 -10.5t-6.5 -24.5q0 -12 5 -21t17 -9q16 0 23 10t7 20v33zM239 363l-3 20q-12 -12 -29.5 -19t-43.5 -7q-50 0 -78 25t-28 67q0 23 10.5 41.5t29 31t43 19t51.5 6.5q14 0 22.5 -0.5t14.5 -1.5v24q0 11 -8.5 17t-31.5 6q-19 0 -39 -4
t-46 -14l-19 73q32 12 66 16t63 4q63 0 96.5 -23t33.5 -65v-155q0 -13 2 -27l5 -34h-111z" />
    <glyph glyph-name="guillemotleft" unicode="&#xab;" horiz-adv-x="510" 
d="M133 80l-137 178l137 178h150l-143 -178l143 -178h-150zM361 80l-137 178l137 178h150l-143 -178l143 -178h-150z" />
    <glyph glyph-name="logicalnot" unicode="&#xac;" horiz-adv-x="600" 
d="M434 108v171h-389v109h510v-280h-121z" />
    <glyph glyph-name="uni00AD" unicode="&#xad;" horiz-adv-x="340" 
d="M39 233v116h262v-116h-262z" />
    <glyph glyph-name="registered" unicode="&#xae;" horiz-adv-x="756" 
d="M413 408q0 41 -49 41h-29v-92h23q55 0 55 51zM431 152q-8 13 -13.5 26.5t-12.5 27.5l-29 61q-5 12 -11.5 20.5t-21.5 8.5h-8v-144h-94v361h143q27 0 50 -6t40 -19t27 -32t10 -46q0 -24 -8 -40.5t-20 -27.5t-26 -17t-26 -9q14 -2 25.5 -14t18.5 -26l34 -70l13.5 -27
t14.5 -27h-106zM623 344q0 48 -18.5 94t-51 81.5t-77.5 57t-98 21.5t-98 -21t-77.5 -56.5t-51 -81.5t-18.5 -95q0 -59 18.5 -109.5t51 -87t77.5 -57.5t98 -21t98 21t77.5 58t51 87t18.5 109zM710 344q0 -75 -25 -140t-69.5 -112.5t-105 -75t-132.5 -27.5q-71 0 -132 27
t-105.5 74t-69.5 112t-25 142q0 66 25 126t69.5 106.5t105.5 74t132 27.5t132 -27.5t105.5 -73.5t69.5 -106.5t25 -126.5z" />
    <glyph glyph-name="macron" unicode="&#xaf;" 
d="M13 608v80h293v-80h-293z" />
    <glyph glyph-name="degree" unicode="&#xb0;" horiz-adv-x="400" 
d="M278 530q0 36 -23 61t-55 25t-55 -25t-23 -61t23 -61t55 -25t55 25t23 61zM350 530q0 -31 -12 -58t-32 -47t-47.5 -31.5t-58.5 -11.5q-32 0 -59 11.5t-47.5 31.5t-32 47t-11.5 58t12 58t32 47t47.5 31.5t58.5 11.5t58.5 -11.5t48 -31.5t32 -47t11.5 -58z" />
    <glyph glyph-name="plusminus" unicode="&#xb1;" horiz-adv-x="600" 
d="M45 0v116h510v-116h-510zM363 264v-117h-126v117h-192v116h192v116h126v-116h192v-116h-192z" />
    <glyph glyph-name="twosuperior" unicode="&#xb2;" horiz-adv-x="423" 
d="M46 262v54q0 28 13.5 51t33.5 43t43 37.5l43 34t33.5 34t13.5 36.5q0 30 -32 30q-17 0 -45 -5t-67 -22l-31 81q38 17 75.5 24t70.5 7q31 0 59 -6.5t49.5 -20t34 -34.5t12.5 -51q0 -39 -19.5 -66.5t-46.5 -50t-56.5 -44t-49.5 -46.5h178v-86h-312z" />
    <glyph glyph-name="threesuperior" unicode="&#xb3;" horiz-adv-x="423" 
d="M352 387q0 -33 -13 -56.5t-37 -38.5t-57.5 -22.5t-74.5 -7.5q-11 0 -26 1t-32.5 3t-34.5 5.5t-31 8.5l11 84q34 -14 60.5 -17.5t42.5 -3.5q38 0 51.5 13.5t13.5 36.5q0 12 -13.5 26.5t-40.5 14.5h-70v73h72q25 0 35.5 14.5t10.5 29.5q0 12 -10 23.5t-36 11.5
q-23 0 -46.5 -3.5t-56.5 -14.5l-18 82q38 10 71.5 13.5t62.5 3.5q31 0 59 -6t50 -19t35 -33.5t13 -50.5q0 -18 -7.5 -31t-18.5 -22.5t-23.5 -15.5t-23.5 -10q14 -4 28.5 -11.5t26.5 -18.5t19.5 -26.5t7.5 -35.5z" />
    <glyph glyph-name="acute" unicode="&#xb4;" 
d="M203 580h-100l73 136h132z" />
    <glyph glyph-name="mu" unicode="&#xb5;" horiz-adv-x="564" 
d="M355 0l-9 65q-13 -33 -30.5 -53.5t-46.5 -20.5q-32 0 -42 28v-217h-153v694h153v-334q0 -27 9.5 -46.5t42.5 -19.5t46 27.5t13 65.5v307h153v-496h-136z" />
    <glyph glyph-name="paragraph" unicode="&#xb6;" horiz-adv-x="705" 
d="M488 -218v787h-118v-787h-121v531q-39 0 -75 11.5t-64 33t-45 54t-17 74.5q0 51 17.5 85.5t47.5 55.5t70 30.5t85 9.5h341v-885h-121z" />
    <glyph glyph-name="periodcentered" unicode="&#xb7;" horiz-adv-x="282" 
d="M240 311q0 -38 -28.5 -65t-70.5 -27t-70.5 27t-28.5 65q0 19 7.5 35.5t21 29.5t31.5 20.5t39 7.5t39 -7.5t31.5 -20.5t21 -29.5t7.5 -35.5z" />
    <glyph glyph-name="cedilla" unicode="&#xb8;" 
d="M271 -115q0 -22 -10.5 -37.5t-27.5 -25.5t-37.5 -15t-41.5 -5q-32 0 -62.5 6.5t-43.5 14.5l19 45l27.5 -10.5t43.5 -6.5q20 0 34.5 7t14.5 27q0 14 -12.5 22.5t-28.5 8.5q-14 0 -21.5 -2t-14.5 -5l-20 25l51 66h53l-43 -54q15 5 33 5q34 0 60.5 -16.5t26.5 -49.5z" />
    <glyph glyph-name="onesuperior" unicode="&#xb9;" horiz-adv-x="423" 
d="M70 262v86h93v207l-98 -48l-9 92l118 57h115v-308h88v-86h-307z" />
    <glyph glyph-name="ordmasculine" unicode="&#xba;" horiz-adv-x="423" 
d="M248 516q0 11 -0.5 24t-4 24t-11 18.5t-20.5 7.5t-20.5 -7.5t-11 -18.5t-4 -24t-0.5 -24q0 -12 0.5 -26.5t3.5 -26.5t10.5 -20.5t21.5 -8.5t21.5 8.5t10.5 20.5t3.5 26.5t0.5 26.5zM370 516q0 -29 -8 -57.5t-26 -51t-48.5 -36.5t-75.5 -14q-46 0 -76.5 13.5t-48.5 36
t-25.5 51t-7.5 58.5q0 27 9 54t28.5 48.5t49.5 35t71 13.5q42 0 72 -13t49 -34.5t28 -48.5t9 -55z" />
    <glyph glyph-name="guillemotright" unicode="&#xbb;" horiz-adv-x="510" 
d="M149 80h-150l143 178l-143 178h150l137 -178zM377 80h-150l143 178l-143 178h150l137 -178z" />
    <glyph glyph-name="onequarter" unicode="&#xbc;" horiz-adv-x="987" 
d="M70 262v86h93v207l-98 -48l-9 92l118 57h115v-308h88v-86h-307zM426 -24h-102l302 704h102zM817 401l-24 -61l-24.5 -60.5l-24.5 -56l-22 -48.5h43v50h119v-50h49v-81h-49v-94h-119v94h-175v48l56 124.5l56 134.5h115z" />
    <glyph glyph-name="onehalf" unicode="&#xbd;" horiz-adv-x="987" 
d="M70 262v86h93v207l-98 -48l-9 92l118 57h115v-308h88v-86h-307zM401 -24h-102l302 704h102zM610 0v54q0 28 13.5 50.5t33.5 41t43 34.5t43 32t33.5 32.5t13.5 35.5q0 30 -32 30q-17 0 -45 -5t-67 -22l-31 81q38 17 75.5 24t70.5 7q31 0 59 -6.5t49.5 -20t34 -34.5
t12.5 -51q0 -26 -9 -46t-24 -36t-33.5 -29.5l-37.5 -27l-37 -27.5t-31 -31h178v-86h-312z" />
    <glyph glyph-name="threequarters" unicode="&#xbe;" horiz-adv-x="987" 
d="M352 387q0 -33 -13 -56.5t-37 -38.5t-57.5 -22.5t-74.5 -7.5q-11 0 -26 1t-32.5 3t-34.5 5.5t-31 8.5l11 84q34 -14 60.5 -17.5t42.5 -3.5q38 0 51.5 13.5t13.5 36.5q0 12 -13.5 26.5t-40.5 14.5h-70v73h72q25 0 35.5 14.5t10.5 29.5q0 12 -10 23.5t-36 11.5
q-23 0 -46.5 -3.5t-56.5 -14.5l-18 82q38 10 71.5 13.5t62.5 3.5q31 0 59 -6t50 -19t35 -33.5t13 -50.5q0 -18 -7.5 -31t-18.5 -22.5t-23.5 -15.5t-23.5 -10q14 -4 28.5 -11.5t26.5 -18.5t19.5 -26.5t7.5 -35.5zM398 -24h-102l302 704h102zM817 401l-24 -61l-24.5 -60.5
l-24.5 -56l-22 -48.5h43v50h119v-50h49v-81h-49v-94h-119v94h-175v48l56 124.5l56 134.5h115z" />
    <glyph glyph-name="questiondown" unicode="&#xbf;" horiz-adv-x="414" 
d="M384 -164q-17 -8 -38 -14t-44 -10.5t-46.5 -7t-45.5 -2.5q-88 0 -137 38t-49 117q0 45 21.5 76t47 56t47 49t21.5 56v76h140q0 -20 0.5 -43t0.5 -37q0 -42 -18.5 -70.5t-41 -52t-41 -47.5t-18.5 -57q0 -56 53 -56q20 0 52.5 6t63.5 23l32 -100v0zM329 414q0 -18 -7.5 -35
t-21 -29.5t-31.5 -20t-38 -7.5t-38 7.5t-31.5 20t-21 29.5t-7.5 35t7.5 34.5t21 29t31.5 20t38 7.5t38 -7.5t31.5 -20t21 -29t7.5 -34.5z" />
    <glyph glyph-name="Agrave" unicode="&#xc0;" horiz-adv-x="614" 
d="M303 548l-67 -286h135zM434 0l-36 151h-188l-36 -151h-164l195 667h204l195 -667h-170zM276 724l-105 136h132l73 -136h-100z" />
    <glyph glyph-name="Aacute" unicode="&#xc1;" horiz-adv-x="614" 
d="M303 548l-67 -286h135zM434 0l-36 151h-188l-36 -151h-164l195 667h204l195 -667h-170zM339 724h-100l73 136h132z" />
    <glyph glyph-name="Acircumflex" unicode="&#xc2;" horiz-adv-x="614" 
d="M303 548l-67 -286h135zM434 0l-36 151h-188l-36 -151h-164l195 667h204l195 -667h-170zM356 724l-51 86l-51 -86h-107l94 136h132l94 -136h-111z" />
    <glyph glyph-name="Atilde" unicode="&#xc3;" horiz-adv-x="614" 
d="M303 548l-67 -286h135zM434 0l-36 151h-188l-36 -151h-164l195 667h204l195 -667h-170zM464 858q0 -21 -5.5 -44t-17 -42.5t-29 -32.5t-42.5 -13q-18 0 -34 6.5t-31 14.5t-28.5 14.5t-25.5 6.5q-14 0 -22 -15t-8 -27h-71q1 20 6.5 43t17 43t29 33t41.5 13q18 0 35 -6.5
t32 -14.5t28.5 -14.5t25.5 -6.5q15 0 21 15t7 27h71v0z" />
    <glyph glyph-name="Adieresis" unicode="&#xc4;" horiz-adv-x="614" 
d="M303 548l-67 -286h135zM434 0l-36 151h-188l-36 -151h-164l195 667h204l195 -667h-170zM280 792q0 -30 -23.5 -52.5t-56.5 -22.5t-56.5 22.5t-23.5 52.5t23.5 52.5t56.5 22.5t56.5 -22.5t23.5 -52.5zM494 792q0 -30 -23.5 -52.5t-56.5 -22.5t-56.5 22.5t-23.5 52.5
t23.5 52.5t56.5 22.5t56.5 -22.5t23.5 -52.5z" />
    <glyph glyph-name="Aring" unicode="&#xc5;" horiz-adv-x="614" 
d="M303 548l-67 -286h135zM434 0l-36 151h-188l-36 -151h-164l195 667h204l195 -667h-170zM344 792q0 16 -11 27t-27 11q-15 0 -26.5 -11.5t-11.5 -26.5q0 -16 11 -27t27 -11t27 11t11 27zM403 792q0 -41 -29 -66t-68 -25q-41 0 -69 25t-28 66t29 66t68 25q40 0 68.5 -25
t28.5 -66z" />
    <glyph glyph-name="AE" unicode="&#xc6;" horiz-adv-x="866" 
d="M420 573l-140 -311h140v311zM420 0v151h-190l-70 -151h-167l322 667h495v-114h-229v-153h211v-112h-211v-173h241v-115h-402z" />
    <glyph glyph-name="Ccedilla" unicode="&#xc7;" horiz-adv-x="544" 
d="M480 540q-22 8 -44.5 13t-45.5 5q-48 0 -81.5 -14.5t-54.5 -42t-30.5 -67.5t-9.5 -90q0 -54 7 -97.5t26 -74t52.5 -47t87.5 -16.5q26 0 50.5 5t49.5 15l2 -124q-31 -9 -64 -12.5t-65 -3.5l-34 -43q15 5 33 5q34 0 60.5 -16.5t26.5 -49.5q0 -22 -10.5 -37.5t-27.5 -25.5
t-37.5 -15t-41.5 -5q-32 0 -62.5 6.5t-43.5 14.5l19 45l27.5 -10.5t43.5 -6.5q20 0 34.5 7t14.5 27q0 14 -12.5 22.5t-28.5 8.5q-14 0 -21.5 -2t-14.5 -5l-20 25l41 57q-74 7 -123.5 34t-80 72t-43.5 107.5t-13 139.5q0 69 20 130t60 106.5t99 71.5t137 26q59 0 92 -6
t56 -13z" />
    <glyph glyph-name="Egrave" unicode="&#xc8;" horiz-adv-x="522" 
d="M76 0v667h390v-114h-229v-153h211v-112h-211v-173h241v-115h-402zM242 724l-105 136h132l73 -136h-100z" />
    <glyph glyph-name="Eacute" unicode="&#xc9;" horiz-adv-x="522" 
d="M76 0v667h390v-114h-229v-153h211v-112h-211v-173h241v-115h-402zM305 724h-100l73 136h132z" />
    <glyph glyph-name="Ecircumflex" unicode="&#xca;" horiz-adv-x="522" 
d="M76 0v667h390v-114h-229v-153h211v-112h-211v-173h241v-115h-402zM322 724l-51 86l-51 -86h-107l94 136h132l94 -136h-111z" />
    <glyph glyph-name="Edieresis" unicode="&#xcb;" horiz-adv-x="522" 
d="M76 0v667h390v-114h-229v-153h211v-112h-211v-173h241v-115h-402zM248 792q0 -30 -23.5 -52.5t-56.5 -22.5t-56.5 22.5t-23.5 52.5t23.5 52.5t56.5 22.5t56.5 -22.5t23.5 -52.5zM462 792q0 -30 -23.5 -52.5t-56.5 -22.5t-56.5 22.5t-23.5 52.5t23.5 52.5t56.5 22.5
t56.5 -22.5t23.5 -52.5z" />
    <glyph glyph-name="Igrave" unicode="&#xcc;" horiz-adv-x="314" 
d="M76 0v667h162v-667h-162zM117 724l-105 136h132l73 -136h-100z" />
    <glyph glyph-name="Iacute" unicode="&#xcd;" horiz-adv-x="314" 
d="M76 0v667h162v-667h-162zM200 724h-100l73 136h132z" />
    <glyph glyph-name="Icircumflex" unicode="&#xce;" horiz-adv-x="314" 
d="M76 0v667h162v-667h-162zM207 724l-51 86l-51 -86h-107l94 136h132l94 -136h-111z" />
    <glyph glyph-name="Idieresis" unicode="&#xcf;" horiz-adv-x="314" 
d="M76 0v667h162v-667h-162zM131 792q0 -30 -23.5 -52.5t-56.5 -22.5t-56.5 22.5t-23.5 52.5t23.5 52.5t56.5 22.5t56.5 -22.5t23.5 -52.5zM345 792q0 -30 -23.5 -52.5t-56.5 -22.5t-56.5 22.5t-23.5 52.5t23.5 52.5t56.5 22.5t56.5 -22.5t23.5 -52.5z" />
    <glyph glyph-name="Eth" unicode="&#xd0;" horiz-adv-x="650" 
d="M436 344q0 34 -6.5 70.5t-21.5 65.5t-40 48t-62 19h-68v-162h108v-94h-108v-171h69q34 0 58.5 20t40.5 52t23 72t7 80zM604 344q0 -68 -15 -130.5t-48 -110t-85 -75.5t-126 -28h-254v291h-72v94h72v282h248q77 0 130.5 -27.5t86.5 -72.5t48 -103t15 -120z" />
    <glyph glyph-name="Ntilde" unicode="&#xd1;" horiz-adv-x="668" 
d="M372 0l-158 491v-491h-138v667h220l158 -491v491h138v-667h-220zM491 858q0 -21 -5.5 -44t-17 -42.5t-29 -32.5t-42.5 -13q-18 0 -34 6.5t-31 14.5t-28.5 14.5t-25.5 6.5q-14 0 -22 -15t-8 -27h-71q1 20 6.5 43t17 43t29 33t41.5 13q18 0 35 -6.5t32 -14.5t28.5 -14.5
t25.5 -6.5q15 0 21 15t7 27h71v0z" />
    <glyph glyph-name="Ograve" unicode="&#xd2;" horiz-adv-x="688" 
d="M474 343q0 32 -4.5 70.5t-18.5 72.5t-39.5 56.5t-67.5 22.5q-41 0 -66.5 -23t-39.5 -56.5t-19 -72.5t-5 -70q0 -33 3.5 -74.5t17 -78t39.5 -62t70 -25.5t69.5 25.5t39 62t17.5 78t4 74.5zM642 344q0 -74 -16 -138.5t-51.5 -112.5t-92 -76t-138.5 -28q-83 0 -140 27.5
t-92 75.5t-50.5 112.5t-15.5 139.5q0 69 18.5 130t56 106.5t93 71.5t130.5 26q79 0 135.5 -25t92.5 -69t53 -105.5t17 -134.5zM309 724l-105 136h132l73 -136h-100z" />
    <glyph glyph-name="Oacute" unicode="&#xd3;" horiz-adv-x="688" 
d="M474 343q0 32 -4.5 70.5t-18.5 72.5t-39.5 56.5t-67.5 22.5q-41 0 -66.5 -23t-39.5 -56.5t-19 -72.5t-5 -70q0 -33 3.5 -74.5t17 -78t39.5 -62t70 -25.5t69.5 25.5t39 62t17.5 78t4 74.5zM642 344q0 -74 -16 -138.5t-51.5 -112.5t-92 -76t-138.5 -28q-83 0 -140 27.5
t-92 75.5t-50.5 112.5t-15.5 139.5q0 69 18.5 130t56 106.5t93 71.5t130.5 26q79 0 135.5 -25t92.5 -69t53 -105.5t17 -134.5zM381 724h-100l73 136h132z" />
    <glyph glyph-name="Ocircumflex" unicode="&#xd4;" horiz-adv-x="688" 
d="M474 343q0 32 -4.5 70.5t-18.5 72.5t-39.5 56.5t-67.5 22.5q-41 0 -66.5 -23t-39.5 -56.5t-19 -72.5t-5 -70q0 -33 3.5 -74.5t17 -78t39.5 -62t70 -25.5t69.5 25.5t39 62t17.5 78t4 74.5zM642 344q0 -74 -16 -138.5t-51.5 -112.5t-92 -76t-138.5 -28q-83 0 -140 27.5
t-92 75.5t-50.5 112.5t-15.5 139.5q0 69 18.5 130t56 106.5t93 71.5t130.5 26q79 0 135.5 -25t92.5 -69t53 -105.5t17 -134.5zM394 724l-51 86l-51 -86h-107l94 136h132l94 -136h-111z" />
    <glyph glyph-name="Otilde" unicode="&#xd5;" horiz-adv-x="688" 
d="M474 343q0 32 -4.5 70.5t-18.5 72.5t-39.5 56.5t-67.5 22.5q-41 0 -66.5 -23t-39.5 -56.5t-19 -72.5t-5 -70q0 -33 3.5 -74.5t17 -78t39.5 -62t70 -25.5t69.5 25.5t39 62t17.5 78t4 74.5zM642 344q0 -74 -16 -138.5t-51.5 -112.5t-92 -76t-138.5 -28q-83 0 -140 27.5
t-92 75.5t-50.5 112.5t-15.5 139.5q0 69 18.5 130t56 106.5t93 71.5t130.5 26q79 0 135.5 -25t92.5 -69t53 -105.5t17 -134.5zM502 858q0 -21 -5.5 -44t-17 -42.5t-29 -32.5t-42.5 -13q-18 0 -34 6.5t-31 14.5t-28.5 14.5t-25.5 6.5q-14 0 -22 -15t-8 -27h-71q1 20 6.5 43
t17 43t29 33t41.5 13q18 0 35 -6.5t32 -14.5t28.5 -14.5t25.5 -6.5q15 0 21 15t7 27h71v0z" />
    <glyph glyph-name="Odieresis" unicode="&#xd6;" horiz-adv-x="688" 
d="M474 343q0 32 -4.5 70.5t-18.5 72.5t-39.5 56.5t-67.5 22.5q-41 0 -66.5 -23t-39.5 -56.5t-19 -72.5t-5 -70q0 -33 3.5 -74.5t17 -78t39.5 -62t70 -25.5t69.5 25.5t39 62t17.5 78t4 74.5zM642 344q0 -74 -16 -138.5t-51.5 -112.5t-92 -76t-138.5 -28q-83 0 -140 27.5
t-92 75.5t-50.5 112.5t-15.5 139.5q0 69 18.5 130t56 106.5t93 71.5t130.5 26q79 0 135.5 -25t92.5 -69t53 -105.5t17 -134.5zM317 792q0 -30 -23.5 -52.5t-56.5 -22.5t-56.5 22.5t-23.5 52.5t23.5 52.5t56.5 22.5t56.5 -22.5t23.5 -52.5zM531 792q0 -30 -23.5 -52.5
t-56.5 -22.5t-56.5 22.5t-23.5 52.5t23.5 52.5t56.5 22.5t56.5 -22.5t23.5 -52.5z" />
    <glyph glyph-name="multiply" unicode="&#xd7;" horiz-adv-x="600" 
d="M462 -1l-161 163l-163 -162l-90 81l167 166l-166 167l87 83l164 -163l162 162l90 -82l-165 -167l165 -166z" />
    <glyph glyph-name="Oslash" unicode="&#xd8;" horiz-adv-x="688" 
d="M474 343q0 18 -1 39.5t-5 42.5l-214 -274q14 -22 36 -35t54 -13q44 0 69.5 25.5t39 62t17.5 78t4 74.5zM435 516q-15 22 -37 35.5t-54 13.5q-41 0 -66.5 -23t-39.5 -56.5t-19 -72.5t-5 -70q0 -21 1 -47.5t6 -52.5l214 273v0zM583 569q30 -44 44.5 -101t14.5 -124
q0 -74 -16 -138.5t-51.5 -112.5t-92 -76t-138.5 -28q-57 0 -101 13.5t-78 37.5l-63 -81l-63 56l67 85q-32 48 -46 110t-14 134q0 69 18.5 130t56 106.5t93 71.5t130.5 26q57 0 101.5 -13.5t78.5 -36.5l62 80l63 -56z" />
    <glyph glyph-name="Ugrave" unicode="&#xd9;" horiz-adv-x="650" 
d="M582 241q0 -60 -18 -107t-51.5 -79.5t-81 -49t-106.5 -16.5q-122 0 -189.5 65.5t-67.5 186.5v426h162v-416q0 -30 4 -56t15 -45t29 -30t47 -11q27 0 45 11t29.5 30t16 45t4.5 56v416h162v-426v0zM292 724l-105 136h132l73 -136h-100z" />
    <glyph glyph-name="Uacute" unicode="&#xda;" horiz-adv-x="650" 
d="M582 241q0 -60 -18 -107t-51.5 -79.5t-81 -49t-106.5 -16.5q-122 0 -189.5 65.5t-67.5 186.5v426h162v-416q0 -30 4 -56t15 -45t29 -30t47 -11q27 0 45 11t29.5 30t16 45t4.5 56v416h162v-426v0zM358 724h-100l73 136h132z" />
    <glyph glyph-name="Ucircumflex" unicode="&#xdb;" horiz-adv-x="650" 
d="M582 241q0 -60 -18 -107t-51.5 -79.5t-81 -49t-106.5 -16.5q-122 0 -189.5 65.5t-67.5 186.5v426h162v-416q0 -30 4 -56t15 -45t29 -30t47 -11q27 0 45 11t29.5 30t16 45t4.5 56v416h162v-426v0zM374 724l-51 86l-51 -86h-107l94 136h132l94 -136h-111z" />
    <glyph glyph-name="Udieresis" unicode="&#xdc;" horiz-adv-x="650" 
d="M582 241q0 -60 -18 -107t-51.5 -79.5t-81 -49t-106.5 -16.5q-122 0 -189.5 65.5t-67.5 186.5v426h162v-416q0 -30 4 -56t15 -45t29 -30t47 -11q27 0 45 11t29.5 30t16 45t4.5 56v416h162v-426v0zM298 792q0 -30 -23.5 -52.5t-56.5 -22.5t-56.5 22.5t-23.5 52.5t23.5 52.5
t56.5 22.5t56.5 -22.5t23.5 -52.5zM512 792q0 -30 -23.5 -52.5t-56.5 -22.5t-56.5 22.5t-23.5 52.5t23.5 52.5t56.5 22.5t56.5 -22.5t23.5 -52.5z" />
    <glyph glyph-name="Yacute" unicode="&#xdd;" horiz-adv-x="540" 
d="M351 246v-246h-162v246l-191 421h168l109 -293l105 293h162zM313 724h-100l73 136h132z" />
    <glyph glyph-name="Thorn" unicode="&#xde;" horiz-adv-x="562" 
d="M371 344q0 36 -17 62t-58 26h-58v-175h52q42 0 61.5 22.5t19.5 64.5zM537 344q0 -48 -17.5 -86.5t-49 -65t-74 -40.5t-92.5 -14h-66v-138h-162v667h162v-115h80q48 0 88 -14.5t69.5 -41.5t45.5 -65.5t16 -86.5z" />
    <glyph glyph-name="germandbls" unicode="&#xdf;" horiz-adv-x="576" 
d="M532 198q0 -46 -10 -84t-31 -65.5t-52.5 -42.5t-73.5 -15q-7 0 -18.5 0.5t-25 2l-27 3t-23.5 4.5v101q14 -7 26.5 -8.5t27.5 -1.5q17 0 27 8.5t15 24t6.5 37.5t1.5 48q0 48 -15.5 79.5t-47.5 31.5h-35v94h29q30 0 42.5 26t12.5 71q0 19 -3 37t-11 31.5t-22 22t-37 8.5
q-21 0 -35.5 -7t-23.5 -18t-12.5 -25t-3.5 -29v-532h-151v532q0 43 17 76.5t47.5 56.5t72.5 35t92 12q48 0 88.5 -13.5t69 -37.5t44.5 -57.5t16 -73.5q0 -64 -26.5 -104t-77.5 -53q31 -4 54.5 -20t39.5 -40.5t24.5 -54t8.5 -60.5z" />
    <glyph glyph-name="agrave" unicode="&#xe0;" horiz-adv-x="506" 
d="M295 213q-8 3 -19 5t-26 2q-18 0 -30.5 -6.5t-20 -17t-10.5 -23.5t-3 -27q0 -25 11.5 -42t37.5 -17q29 0 44.5 17.5t15.5 41.5v67zM310 0l-9 58q-22 -29 -48 -48t-72 -19q-72 0 -111 39t-39 107q0 73 50 116.5t142 43.5q30 0 44 -2.5t28 -4.5v57q0 29 -20 43.5t-56 14.5
q-61 0 -121 -26l-22 97q39 17 89 23t93 6q94 0 140 -37t46 -103v-272q0 -23 3 -46.5l6 -46.5h-143zM221 580l-105 136h132l73 -136h-100z" />
    <glyph glyph-name="aacute" unicode="&#xe1;" horiz-adv-x="506" 
d="M295 213q-8 3 -19 5t-26 2q-18 0 -30.5 -6.5t-20 -17t-10.5 -23.5t-3 -27q0 -25 11.5 -42t37.5 -17q29 0 44.5 17.5t15.5 41.5v67zM310 0l-9 58q-22 -29 -48 -48t-72 -19q-72 0 -111 39t-39 107q0 73 50 116.5t142 43.5q30 0 44 -2.5t28 -4.5v57q0 29 -20 43.5t-56 14.5
q-61 0 -121 -26l-22 97q39 17 89 23t93 6q94 0 140 -37t46 -103v-272q0 -23 3 -46.5l6 -46.5h-143zM284 580h-100l73 136h132z" />
    <glyph glyph-name="acircumflex" unicode="&#xe2;" horiz-adv-x="506" 
d="M295 213q-8 3 -19 5t-26 2q-18 0 -30.5 -6.5t-20 -17t-10.5 -23.5t-3 -27q0 -25 11.5 -42t37.5 -17q29 0 44.5 17.5t15.5 41.5v67zM310 0l-9 58q-22 -29 -48 -48t-72 -19q-72 0 -111 39t-39 107q0 73 50 116.5t142 43.5q30 0 44 -2.5t28 -4.5v57q0 29 -20 43.5t-56 14.5
q-61 0 -121 -26l-22 97q39 17 89 23t93 6q94 0 140 -37t46 -103v-272q0 -23 3 -46.5l6 -46.5h-143zM299 580l-51 86l-51 -86h-107l94 136h132l94 -136h-111z" />
    <glyph glyph-name="atilde" unicode="&#xe3;" horiz-adv-x="506" 
d="M295 213q-8 3 -19 5t-26 2q-18 0 -30.5 -6.5t-20 -17t-10.5 -23.5t-3 -27q0 -25 11.5 -42t37.5 -17q29 0 44.5 17.5t15.5 41.5v67zM310 0l-9 58q-22 -29 -48 -48t-72 -19q-72 0 -111 39t-39 107q0 73 50 116.5t142 43.5q30 0 44 -2.5t28 -4.5v57q0 29 -20 43.5t-56 14.5
q-61 0 -121 -26l-22 97q39 17 89 23t93 6q94 0 140 -37t46 -103v-272q0 -23 3 -46.5l6 -46.5h-143zM412 714q0 -21 -5.5 -44t-17 -42.5t-29 -32.5t-42.5 -13q-18 0 -34 6.5t-31 14.5t-28.5 14.5t-25.5 6.5q-14 0 -22 -15t-8 -27h-71q1 20 6.5 43t17 43t29 33t41.5 13
q18 0 35 -6.5t32 -14.5t28.5 -14.5t25.5 -6.5q15 0 21 15t7 27h71v0z" />
    <glyph glyph-name="adieresis" unicode="&#xe4;" horiz-adv-x="506" 
d="M295 213q-8 3 -19 5t-26 2q-18 0 -30.5 -6.5t-20 -17t-10.5 -23.5t-3 -27q0 -25 11.5 -42t37.5 -17q29 0 44.5 17.5t15.5 41.5v67zM310 0l-9 58q-22 -29 -48 -48t-72 -19q-72 0 -111 39t-39 107q0 73 50 116.5t142 43.5q30 0 44 -2.5t28 -4.5v57q0 29 -20 43.5t-56 14.5
q-61 0 -121 -26l-22 97q39 17 89 23t93 6q94 0 140 -37t46 -103v-272q0 -23 3 -46.5l6 -46.5h-143zM226 648q0 -30 -23.5 -52.5t-56.5 -22.5t-56.5 22.5t-23.5 52.5t23.5 52.5t56.5 22.5t56.5 -22.5t23.5 -52.5zM440 648q0 -30 -23.5 -52.5t-56.5 -22.5t-56.5 22.5
t-23.5 52.5t23.5 52.5t56.5 22.5t56.5 -22.5t23.5 -52.5z" />
    <glyph glyph-name="aring" unicode="&#xe5;" horiz-adv-x="506" 
d="M295 213q-8 3 -19 5t-26 2q-18 0 -30.5 -6.5t-20 -17t-10.5 -23.5t-3 -27q0 -25 11.5 -42t37.5 -17q29 0 44.5 17.5t15.5 41.5v67zM310 0l-9 58q-22 -29 -48 -48t-72 -19q-72 0 -111 39t-39 107q0 73 50 116.5t142 43.5q30 0 44 -2.5t28 -4.5v57q0 29 -20 43.5t-56 14.5
q-61 0 -121 -26l-22 97q39 17 89 23t93 6q94 0 140 -37t46 -103v-272q0 -23 3 -46.5l6 -46.5h-143zM288 648q0 16 -11 27t-27 11q-15 0 -26.5 -11.5t-11.5 -26.5q0 -16 11 -27t27 -11t27 11t11 27zM347 648q0 -41 -29 -66t-68 -25q-41 0 -69 25t-28 66t29 66t68 25
q40 0 68.5 -25t28.5 -66z" />
    <glyph glyph-name="ae" unicode="&#xe6;" horiz-adv-x="741" 
d="M295 215q-8 3 -19 5t-26 2q-18 0 -30.5 -6.5t-20 -17.5t-10.5 -24.5t-3 -27.5q0 -25 11.5 -42t37.5 -17q29 0 44.5 17.5t15.5 41.5v69zM559 303q0 15 -2 33.5t-8.5 35t-18.5 27.5t-32 11t-31.5 -11t-18 -27.5t-8.5 -35t-2 -33.5h121v0zM438 212q0 -56 30 -87.5t85 -31.5
q28 0 58.5 6.5t55.5 19.5l22 -103q-33 -14 -72.5 -19.5t-81.5 -5.5q-72 0 -116.5 22.5t-68.5 64.5q-9 -17 -23.5 -33t-34.5 -28t-47.5 -19t-63.5 -7q-72 0 -111 39t-39 107q0 73 50 117.5t142 44.5q30 0 44 -2.5t28 -4.5v55q0 29 -20 43.5t-56 14.5q-61 0 -121 -26l-22 97
q39 17 89 23t93 6q27 0 48 -6t36.5 -15t26 -19.5t16.5 -19.5q4 9 16 19.5t27.5 19.5t33.5 15t36 6q62 0 102.5 -19t64.5 -52.5t33.5 -79.5t9.5 -99v-43h-270z" />
    <glyph glyph-name="ccedilla" unicode="&#xe7;" horiz-adv-x="424" 
d="M398 10q-19 -8 -50.5 -13t-67.5 -6l-36 -45q15 5 33 5q34 0 60.5 -16.5t26.5 -49.5q0 -22 -10.5 -37.5t-27.5 -25.5t-37.5 -15t-41.5 -5q-32 0 -62.5 6.5t-43.5 14.5l19 45l27.5 -10.5t43.5 -6.5q20 0 34.5 7t14.5 27q0 14 -12.5 22.5t-28.5 8.5q-14 0 -21.5 -2t-14.5 -5
l-20 25l43 59q-56 6 -92.5 31.5t-58 62t-30.5 80.5t-9 88q0 48 15.5 93.5t46.5 80t77 55.5t108 21q37 0 66.5 -4.5t46.5 -11.5l-23 -98q-15 6 -32 8.5t-41 2.5q-32 0 -52 -13t-32 -34t-16.5 -47.5t-4.5 -52.5q0 -33 4.5 -62t17.5 -50.5t35 -34.5t57 -13q16 0 33 4t32 12
l24 -101v0z" />
    <glyph glyph-name="egrave" unicode="&#xe8;" horiz-adv-x="495" 
d="M313 303q0 15 -2 33.5t-8.5 35t-18.5 27.5t-32 11t-31.5 -11t-18 -27.5t-8.5 -35t-2 -33.5h121v0zM192 212q0 -55 30 -87t85 -32q28 0 58.5 6.5t55.5 19.5l22 -103q-38 -16 -85.5 -20.5t-88.5 -4.5q-59 0 -103 20.5t-73 56.5t-43 84t-14 103q0 48 12.5 93.5t39 80
t67 55.5t97.5 21q62 0 102.5 -19t64.5 -52.5t33.5 -79.5t9.5 -99v-43h-270zM221 580l-105 136h132l73 -136h-100z" />
    <glyph glyph-name="eacute" unicode="&#xe9;" horiz-adv-x="495" 
d="M313 303q0 15 -2 33.5t-8.5 35t-18.5 27.5t-32 11t-31.5 -11t-18 -27.5t-8.5 -35t-2 -33.5h121v0zM192 212q0 -55 30 -87t85 -32q28 0 58.5 6.5t55.5 19.5l22 -103q-38 -16 -85.5 -20.5t-88.5 -4.5q-59 0 -103 20.5t-73 56.5t-43 84t-14 103q0 48 12.5 93.5t39 80
t67 55.5t97.5 21q62 0 102.5 -19t64.5 -52.5t33.5 -79.5t9.5 -99v-43h-270zM287 580h-100l73 136h132z" />
    <glyph glyph-name="ecircumflex" unicode="&#xea;" horiz-adv-x="495" 
d="M313 303q0 15 -2 33.5t-8.5 35t-18.5 27.5t-32 11t-31.5 -11t-18 -27.5t-8.5 -35t-2 -33.5h121v0zM192 212q0 -55 30 -87t85 -32q28 0 58.5 6.5t55.5 19.5l22 -103q-38 -16 -85.5 -20.5t-88.5 -4.5q-59 0 -103 20.5t-73 56.5t-43 84t-14 103q0 48 12.5 93.5t39 80
t67 55.5t97.5 21q62 0 102.5 -19t64.5 -52.5t33.5 -79.5t9.5 -99v-43h-270zM301 580l-51 86l-51 -86h-107l94 136h132l94 -136h-111z" />
    <glyph glyph-name="edieresis" unicode="&#xeb;" horiz-adv-x="495" 
d="M313 303q0 15 -2 33.5t-8.5 35t-18.5 27.5t-32 11t-31.5 -11t-18 -27.5t-8.5 -35t-2 -33.5h121v0zM192 212q0 -55 30 -87t85 -32q28 0 58.5 6.5t55.5 19.5l22 -103q-38 -16 -85.5 -20.5t-88.5 -4.5q-59 0 -103 20.5t-73 56.5t-43 84t-14 103q0 48 12.5 93.5t39 80
t67 55.5t97.5 21q62 0 102.5 -19t64.5 -52.5t33.5 -79.5t9.5 -99v-43h-270zM225 648q0 -30 -23.5 -52.5t-56.5 -22.5t-56.5 22.5t-23.5 52.5t23.5 52.5t56.5 22.5t56.5 -22.5t23.5 -52.5zM439 648q0 -30 -23.5 -52.5t-56.5 -22.5t-56.5 22.5t-23.5 52.5t23.5 52.5t56.5 22.5
t56.5 -22.5t23.5 -52.5z" />
    <glyph glyph-name="igrave" unicode="&#xec;" 
d="M95 0v394h-66v102h219v-496h-153zM140 580l-105 136h132l73 -136h-100z" />
    <glyph glyph-name="iacute" unicode="&#xed;" 
d="M95 0v394h-66v102h219v-496h-153zM203 580h-100l73 136h132z" />
    <glyph glyph-name="icircumflex" unicode="&#xee;" 
d="M95 0v394h-66v102h219v-496h-153zM208 580l-51 86l-51 -86h-107l94 136h132l94 -136h-111z" />
    <glyph glyph-name="idieresis" unicode="&#xef;" 
d="M95 0v394h-66v102h219v-496h-153zM132 648q0 -30 -23.5 -52.5t-56.5 -22.5t-56.5 22.5t-23.5 52.5t23.5 52.5t56.5 22.5t56.5 -22.5t23.5 -52.5zM346 648q0 -30 -23.5 -52.5t-56.5 -22.5t-56.5 22.5t-23.5 52.5t23.5 52.5t56.5 22.5t56.5 -22.5t23.5 -52.5z" />
    <glyph glyph-name="eth" unicode="&#xf0;" horiz-adv-x="530" 
d="M335 254q0 22 -2 49t-9.5 50t-21.5 38.5t-37 15.5t-37 -15.5t-21.5 -38.5t-9.5 -50t-2 -49q0 -24 2 -52.5t9 -53t21 -41.5t38 -17t38 17t21 41.5t9 53t2 52.5zM494 255q0 -50 -11.5 -97t-38 -84.5t-70.5 -60t-109 -22.5q-67 0 -111 22t-70.5 59t-37 84.5t-10.5 98.5
q0 46 13.5 91t41 80t68.5 57t96 22q23 0 49.5 -9.5t40.5 -27.5q-5 34 -25.5 69.5t-48.5 58.5l-106 -52l-43 53l89 44q-19 11 -41.5 21t-43.5 18l74 51q54 -15 99 -45l98 49l45 -54l-80 -40q39 -36 64.5 -82t40.5 -97t21 -104t6 -103z" />
    <glyph glyph-name="ntilde" unicode="&#xf1;" horiz-adv-x="548" 
d="M333 0v336q0 27 -10.5 48t-44.5 21q-18 0 -30.5 -8.5t-19.5 -22t-10 -30.5t-3 -35v-309h-153v496h136l9 -65q15 32 47 53t88 21q37 0 64 -12t45 -33t26.5 -49.5t8.5 -60.5v-350h-153zM430 714q0 -21 -5.5 -44t-17 -42.5t-29 -32.5t-42.5 -13q-18 0 -34 6.5t-31 14.5
t-28.5 14.5t-25.5 6.5q-14 0 -22 -15t-8 -27h-71q1 20 6.5 43t17 43t29 33t41.5 13q18 0 35 -6.5t32 -14.5t28.5 -14.5t25.5 -6.5q15 0 21 15t7 27h71v0z" />
    <glyph glyph-name="ograve" unicode="&#xf2;" horiz-adv-x="530" 
d="M335 254q0 22 -2 49t-9.5 50t-21.5 38.5t-37 15.5t-37 -15.5t-21.5 -38.5t-9.5 -50t-2 -49q0 -24 2 -52.5t9 -53t21 -41.5t38 -17t38 17t21 41.5t9 53t2 52.5zM494 255q0 -50 -11.5 -97t-38 -84.5t-70.5 -60t-109 -22.5q-67 0 -111 22t-70.5 59t-37 84.5t-10.5 98.5
q0 46 13.5 91t41 80t71 57t103.5 22q62 0 105.5 -21t71 -56t40 -80t12.5 -93zM237 580l-105 136h132l73 -136h-100z" />
    <glyph glyph-name="oacute" unicode="&#xf3;" horiz-adv-x="530" 
d="M335 254q0 22 -2 49t-9.5 50t-21.5 38.5t-37 15.5t-37 -15.5t-21.5 -38.5t-9.5 -50t-2 -49q0 -24 2 -52.5t9 -53t21 -41.5t38 -17t38 17t21 41.5t9 53t2 52.5zM494 255q0 -50 -11.5 -97t-38 -84.5t-70.5 -60t-109 -22.5q-67 0 -111 22t-70.5 59t-37 84.5t-10.5 98.5
q0 46 13.5 91t41 80t71 57t103.5 22q62 0 105.5 -21t71 -56t40 -80t12.5 -93zM293 580h-100l73 136h132z" />
    <glyph glyph-name="ocircumflex" unicode="&#xf4;" horiz-adv-x="530" 
d="M335 254q0 22 -2 49t-9.5 50t-21.5 38.5t-37 15.5t-37 -15.5t-21.5 -38.5t-9.5 -50t-2 -49q0 -24 2 -52.5t9 -53t21 -41.5t38 -17t38 17t21 41.5t9 53t2 52.5zM494 255q0 -50 -11.5 -97t-38 -84.5t-70.5 -60t-109 -22.5q-67 0 -111 22t-70.5 59t-37 84.5t-10.5 98.5
q0 46 13.5 91t41 80t71 57t103.5 22q62 0 105.5 -21t71 -56t40 -80t12.5 -93zM314 580l-51 86l-51 -86h-107l94 136h132l94 -136h-111z" />
    <glyph glyph-name="otilde" unicode="&#xf5;" horiz-adv-x="530" 
d="M335 254q0 22 -2 49t-9.5 50t-21.5 38.5t-37 15.5t-37 -15.5t-21.5 -38.5t-9.5 -50t-2 -49q0 -24 2 -52.5t9 -53t21 -41.5t38 -17t38 17t21 41.5t9 53t2 52.5zM494 255q0 -50 -11.5 -97t-38 -84.5t-70.5 -60t-109 -22.5q-67 0 -111 22t-70.5 59t-37 84.5t-10.5 98.5
q0 46 13.5 91t41 80t71 57t103.5 22q62 0 105.5 -21t71 -56t40 -80t12.5 -93zM422 714q0 -21 -5.5 -44t-17 -42.5t-29 -32.5t-42.5 -13q-18 0 -34 6.5t-31 14.5t-28.5 14.5t-25.5 6.5q-14 0 -22 -15t-8 -27h-71q1 20 6.5 43t17 43t29 33t41.5 13q18 0 35 -6.5t32 -14.5
t28.5 -14.5t25.5 -6.5q15 0 21 15t7 27h71v0z" />
    <glyph glyph-name="odieresis" unicode="&#xf6;" horiz-adv-x="530" 
d="M335 254q0 22 -2 49t-9.5 50t-21.5 38.5t-37 15.5t-37 -15.5t-21.5 -38.5t-9.5 -50t-2 -49q0 -24 2 -52.5t9 -53t21 -41.5t38 -17t38 17t21 41.5t9 53t2 52.5zM494 255q0 -50 -11.5 -97t-38 -84.5t-70.5 -60t-109 -22.5q-67 0 -111 22t-70.5 59t-37 84.5t-10.5 98.5
q0 46 13.5 91t41 80t71 57t103.5 22q62 0 105.5 -21t71 -56t40 -80t12.5 -93zM237 648q0 -30 -23.5 -52.5t-56.5 -22.5t-56.5 22.5t-23.5 52.5t23.5 52.5t56.5 22.5t56.5 -22.5t23.5 -52.5zM451 648q0 -30 -23.5 -52.5t-56.5 -22.5t-56.5 22.5t-23.5 52.5t23.5 52.5
t56.5 22.5t56.5 -22.5t23.5 -52.5z" />
    <glyph glyph-name="divide" unicode="&#xf7;" horiz-adv-x="600" 
d="M378 77q0 -32 -23 -54.5t-55 -22.5q-33 0 -55 22.5t-22 54.5t22.5 55t54.5 23t55 -23t23 -55zM45 190v116h510v-116h-510zM378 419q0 -32 -23 -55t-55 -23t-54.5 23t-22.5 55t22 54.5t55 22.5q32 0 55 -22.5t23 -54.5z" />
    <glyph glyph-name="oslash" unicode="&#xf8;" horiz-adv-x="530" 
d="M335 254q0 6 -0.5 13t-0.5 14l-119 -156q8 -16 20 -25.5t30 -9.5q24 0 38 17t21 41.5t9 53t2 52.5zM318 367q-8 17 -20.5 28.5t-32.5 11.5q-23 0 -37 -15.5t-21.5 -38.5t-9.5 -50t-2 -49v-22t1 -23l122 158v0zM448 417q23 -34 34.5 -75.5t11.5 -86.5q0 -50 -11.5 -97
t-38 -84.5t-70.5 -60t-109 -22.5q-39 0 -70.5 8.5t-55.5 22.5l-44 -58l-60 49l48 61q-26 37 -36.5 83.5t-10.5 97.5q0 46 13.5 91t41 80t71 57t103.5 22q40 0 71.5 -9.5t56.5 -25.5l42 54l60 -49z" />
    <glyph glyph-name="ugrave" unicode="&#xf9;" horiz-adv-x="540" 
d="M342 0l-9 65q-15 -32 -46.5 -53t-85.5 -21q-36 0 -63 12t-44 33t-25.5 49.5t-8.5 60.5v350h153v-334q0 -27 10 -46.5t43 -19.5t46 27.5t13 65.5v307h153v-496h-136zM244 580l-105 136h132l73 -136h-100z" />
    <glyph glyph-name="uacute" unicode="&#xfa;" horiz-adv-x="540" 
d="M342 0l-9 65q-15 -32 -46.5 -53t-85.5 -21q-36 0 -63 12t-44 33t-25.5 49.5t-8.5 60.5v350h153v-334q0 -27 10 -46.5t43 -19.5t46 27.5t13 65.5v307h153v-496h-136zM295 580h-100l73 136h132z" />
    <glyph glyph-name="ucircumflex" unicode="&#xfb;" horiz-adv-x="540" 
d="M342 0l-9 65q-15 -32 -46.5 -53t-85.5 -21q-36 0 -63 12t-44 33t-25.5 49.5t-8.5 60.5v350h153v-334q0 -27 10 -46.5t43 -19.5t46 27.5t13 65.5v307h153v-496h-136zM319 580l-51 86l-51 -86h-107l94 136h132l94 -136h-111z" />
    <glyph glyph-name="udieresis" unicode="&#xfc;" horiz-adv-x="540" 
d="M342 0l-9 65q-15 -32 -46.5 -53t-85.5 -21q-36 0 -63 12t-44 33t-25.5 49.5t-8.5 60.5v350h153v-334q0 -27 10 -46.5t43 -19.5t46 27.5t13 65.5v307h153v-496h-136zM244 648q0 -30 -23.5 -52.5t-56.5 -22.5t-56.5 22.5t-23.5 52.5t23.5 52.5t56.5 22.5t56.5 -22.5
t23.5 -52.5zM458 648q0 -30 -23.5 -52.5t-56.5 -22.5t-56.5 22.5t-23.5 52.5t23.5 52.5t56.5 22.5t56.5 -22.5t23.5 -52.5z" />
    <glyph glyph-name="yacute" unicode="&#xfd;" horiz-adv-x="474" 
d="M305 -50q-10 -33 -24 -60.5t-35.5 -47t-51 -30t-70.5 -10.5q-24 0 -50 2.5t-44 7.5l27 103q10 -3 26.5 -5.5t26.5 -2.5q26 0 39.5 19t23.5 53l6 21l-169 496h161l80 -322l62 322h155zM287 580h-100l73 136h132z" />
    <glyph glyph-name="thorn" unicode="&#xfe;" horiz-adv-x="544" 
d="M349 254q0 17 -1.5 43t-8 50t-20.5 41.5t-39 17.5q-21 0 -34 -11t-20.5 -27t-10.5 -35t-3 -35v-106q0 -49 17.5 -75.5t48.5 -26.5q27 0 41 15.5t21 39.5t8 53t1 56zM508 254q0 -50 -10 -97t-31.5 -84t-56.5 -59.5t-86 -22.5q-45 0 -70 17.5t-39 44.5v-251h-153v910h153
v-276q19 35 50.5 52t70.5 17q55 0 88.5 -22.5t52 -58.5t25 -81t6.5 -89z" />
    <glyph glyph-name="ydieresis" unicode="&#xff;" horiz-adv-x="474" 
d="M305 -50q-10 -33 -24 -60.5t-35.5 -47t-51 -30t-70.5 -10.5q-24 0 -50 2.5t-44 7.5l27 103q10 -3 26.5 -5.5t26.5 -2.5q26 0 39.5 19t23.5 53l6 21l-169 496h161l80 -322l62 322h155zM212 648q0 -30 -23.5 -52.5t-56.5 -22.5t-56.5 22.5t-23.5 52.5t23.5 52.5t56.5 22.5
t56.5 -22.5t23.5 -52.5zM426 648q0 -30 -23.5 -52.5t-56.5 -22.5t-56.5 22.5t-23.5 52.5t23.5 52.5t56.5 22.5t56.5 -22.5t23.5 -52.5z" />
    <glyph glyph-name=".null" horiz-adv-x="500" 
 />
    <glyph glyph-name="Amacron" unicode="&#x100;" horiz-adv-x="614" 
d="M303 548l-67 -286h135zM434 0l-36 151h-188l-36 -151h-164l195 667h204l195 -667h-170zM159 752v80h293v-80h-293z" />
    <glyph glyph-name="amacron" unicode="&#x101;" horiz-adv-x="506" 
d="M295 213q-8 3 -19 5t-26 2q-18 0 -30.5 -6.5t-20 -17t-10.5 -23.5t-3 -27q0 -25 11.5 -42t37.5 -17q29 0 44.5 17.5t15.5 41.5v67zM310 0l-9 58q-22 -29 -48 -48t-72 -19q-72 0 -111 39t-39 107q0 73 50 116.5t142 43.5q30 0 44 -2.5t28 -4.5v57q0 29 -20 43.5t-56 14.5
q-61 0 -121 -26l-22 97q39 17 89 23t93 6q94 0 140 -37t46 -103v-272q0 -23 3 -46.5l6 -46.5h-143zM114 608v80h293v-80h-293z" />
    <glyph glyph-name="Abreve" unicode="&#x102;" horiz-adv-x="614" 
d="M303 548l-67 -286h135zM434 0l-36 151h-188l-36 -151h-164l195 667h204l195 -667h-170zM428 854q0 -19 -6 -40.5t-20.5 -40t-38.5 -31t-60 -12.5t-60 12.5t-38.5 31t-20.5 40t-6 40.5h79q3 -28 16 -39t30 -11t30 11t16 39h79v0z" />
    <glyph glyph-name="abreve" unicode="&#x103;" horiz-adv-x="506" 
d="M295 213q-8 3 -19 5t-26 2q-18 0 -30.5 -6.5t-20 -17t-10.5 -23.5t-3 -27q0 -25 11.5 -42t37.5 -17q29 0 44.5 17.5t15.5 41.5v67zM310 0l-9 58q-22 -29 -48 -48t-72 -19q-72 0 -111 39t-39 107q0 73 50 116.5t142 43.5q30 0 44 -2.5t28 -4.5v57q0 29 -20 43.5t-56 14.5
q-61 0 -121 -26l-22 97q39 17 89 23t93 6q94 0 140 -37t46 -103v-272q0 -23 3 -46.5l6 -46.5h-143zM386 710q0 -19 -6 -40.5t-20.5 -40t-38.5 -31t-60 -12.5t-60 12.5t-38.5 31t-20.5 40t-6 40.5h79q3 -28 16 -39t30 -11t30 11t16 39h79v0z" />
    <glyph glyph-name="Aogonek" unicode="&#x104;" horiz-adv-x="614" 
d="M566 -182q-19 -8 -40.5 -12t-53.5 -4q-50 0 -73 23.5t-23 56.5q0 24 9 42t24.5 32t35.5 24.5t42 19.5h-53l-36 151h-188l-36 -151h-164l195 667h204l195 -667h-71q-37 -26 -56.5 -46.5t-19.5 -50.5q0 -23 13.5 -37t39.5 -14q14 0 24.5 4.5t18.5 6.5zM303 548l-67 -286
h135z" />
    <glyph glyph-name="aogonek" unicode="&#x105;" horiz-adv-x="506" 
d="M419 -182q-19 -8 -40.5 -12t-53.5 -4q-50 0 -73 23.5t-23 56.5q0 24 9 42t24.5 32t35.5 24.5t42 19.5h-30l-9 58q-22 -29 -48 -48t-72 -19q-72 0 -111 39t-39 107q0 73 50 116.5t142 43.5q30 0 44 -2.5t28 -4.5v57q0 29 -20 43.5t-56 14.5q-61 0 -121 -26l-22 97
q39 17 89 23t93 6q94 0 140 -37t46 -103v-272q0 -23 3 -46.5l6 -46.5h-67q-37 -26 -56.5 -46.5t-19.5 -50.5q0 -23 13.5 -37t39.5 -14q14 0 24.5 4.5t18.5 6.5zM295 213q-8 3 -19 5t-26 2q-18 0 -30.5 -6.5t-20 -17t-10.5 -23.5t-3 -27q0 -25 11.5 -42t37.5 -17
q29 0 44.5 17.5t15.5 41.5v67z" />
    <glyph glyph-name="Cacute" unicode="&#x106;" horiz-adv-x="544" 
d="M480 540q-22 8 -44.5 13t-45.5 5q-48 0 -81.5 -14.5t-54.5 -42t-30.5 -67.5t-9.5 -90q0 -54 7 -97.5t26 -74t52.5 -47t87.5 -16.5q26 0 50.5 5t49.5 15l2 -124q-32 -9 -66 -12.5t-67 -3.5q-88 0 -147.5 24t-95.5 70t-51.5 111.5t-15.5 149.5q0 69 20 130t60 106.5
t99 71.5t137 26q59 0 92 -6t56 -13zM390 724h-100l73 136h132z" />
    <glyph glyph-name="cacute" unicode="&#x107;" horiz-adv-x="424" 
d="M398 10q-21 -9 -58 -14t-78 -5q-66 0 -110 23.5t-69.5 61t-36 85t-10.5 94.5q0 48 15.5 93.5t46.5 80t77 55.5t108 21q37 0 66.5 -4.5t46.5 -11.5l-23 -98q-15 6 -32 8.5t-41 2.5q-32 0 -52 -13t-32 -34t-16.5 -47.5t-4.5 -52.5q0 -33 4.5 -62t17.5 -50.5t35 -34.5
t57 -13q16 0 33 4t32 12l24 -101v0zM292 580h-100l73 136h132z" />
    <glyph glyph-name="Ccircumflex" unicode="&#x108;" horiz-adv-x="544" 
d="M480 540q-22 8 -44.5 13t-45.5 5q-48 0 -81.5 -14.5t-54.5 -42t-30.5 -67.5t-9.5 -90q0 -54 7 -97.5t26 -74t52.5 -47t87.5 -16.5q26 0 50.5 5t49.5 15l2 -124q-32 -9 -66 -12.5t-67 -3.5q-88 0 -147.5 24t-95.5 70t-51.5 111.5t-15.5 149.5q0 69 20 130t60 106.5
t99 71.5t137 26q59 0 92 -6t56 -13zM385 724l-51 86l-51 -86h-107l94 136h132l94 -136h-111z" />
    <glyph glyph-name="ccircumflex" unicode="&#x109;" horiz-adv-x="424" 
d="M398 10q-21 -9 -58 -14t-78 -5q-66 0 -110 23.5t-69.5 61t-36 85t-10.5 94.5q0 48 15.5 93.5t46.5 80t77 55.5t108 21q37 0 66.5 -4.5t46.5 -11.5l-23 -98q-15 6 -32 8.5t-41 2.5q-32 0 -52 -13t-32 -34t-16.5 -47.5t-4.5 -52.5q0 -33 4.5 -62t17.5 -50.5t35 -34.5
t57 -13q16 0 33 4t32 12l24 -101v0zM308 580l-51 86l-51 -86h-107l94 136h132l94 -136h-111z" />
    <glyph glyph-name="Cdotaccent" unicode="&#x10a;" horiz-adv-x="544" 
d="M480 540q-22 8 -44.5 13t-45.5 5q-48 0 -81.5 -14.5t-54.5 -42t-30.5 -67.5t-9.5 -90q0 -54 7 -97.5t26 -74t52.5 -47t87.5 -16.5q26 0 50.5 5t49.5 15l2 -124q-32 -9 -66 -12.5t-67 -3.5q-88 0 -147.5 24t-95.5 70t-51.5 111.5t-15.5 149.5q0 69 20 130t60 106.5
t99 71.5t137 26q59 0 92 -6t56 -13zM434 802q0 -34 -26 -57.5t-64 -23.5t-64 23.5t-26 57.5t26 57.5t64 23.5t64 -23.5t26 -57.5z" />
    <glyph glyph-name="cdotaccent" unicode="&#x10b;" horiz-adv-x="424" 
d="M398 10q-21 -9 -58 -14t-78 -5q-66 0 -110 23.5t-69.5 61t-36 85t-10.5 94.5q0 48 15.5 93.5t46.5 80t77 55.5t108 21q37 0 66.5 -4.5t46.5 -11.5l-23 -98q-15 6 -32 8.5t-41 2.5q-32 0 -52 -13t-32 -34t-16.5 -47.5t-4.5 -52.5q0 -33 4.5 -62t17.5 -50.5t35 -34.5
t57 -13q16 0 33 4t32 12l24 -101v0zM348 648q0 -34 -26 -57.5t-64 -23.5t-64 23.5t-26 57.5t26 57.5t64 23.5t64 -23.5t26 -57.5z" />
    <glyph glyph-name="Ccaron" unicode="&#x10c;" horiz-adv-x="544" 
d="M480 540q-22 8 -44.5 13t-45.5 5q-48 0 -81.5 -14.5t-54.5 -42t-30.5 -67.5t-9.5 -90q0 -54 7 -97.5t26 -74t52.5 -47t87.5 -16.5q26 0 50.5 5t49.5 15l2 -124q-32 -9 -66 -12.5t-67 -3.5q-88 0 -147.5 24t-95.5 70t-51.5 111.5t-15.5 149.5q0 69 20 130t60 106.5
t99 71.5t137 26q59 0 92 -6t56 -13zM402 724h-132l-94 136h111l51 -86l51 86h107z" />
    <glyph glyph-name="ccaron" unicode="&#x10d;" horiz-adv-x="424" 
d="M398 10q-21 -9 -58 -14t-78 -5q-66 0 -110 23.5t-69.5 61t-36 85t-10.5 94.5q0 48 15.5 93.5t46.5 80t77 55.5t108 21q37 0 66.5 -4.5t46.5 -11.5l-23 -98q-15 6 -32 8.5t-41 2.5q-32 0 -52 -13t-32 -34t-16.5 -47.5t-4.5 -52.5q0 -33 4.5 -62t17.5 -50.5t35 -34.5
t57 -13q16 0 33 4t32 12l24 -101v0zM322 580h-132l-94 136h111l51 -86l51 86h107z" />
    <glyph glyph-name="Dcaron" unicode="&#x10e;" horiz-adv-x="650" 
d="M436 344q0 34 -6.5 70.5t-21.5 65.5t-40 48t-62 19h-68v-427h69q34 0 58.5 20t40.5 52t23 72t7 80zM604 344q0 -68 -15 -130.5t-48 -110t-85 -75.5t-126 -28h-254v667h248q77 0 130.5 -27.5t86.5 -72.5t48 -103t15 -120zM357 724h-132l-94 136h111l51 -86l51 86h107z" />
    <glyph glyph-name="dcaron" unicode="&#x10f;" horiz-adv-x="544" 
d="M332 299q0 16 -3.5 34.5t-11.5 35t-21 27.5t-33 11q-25 0 -38.5 -19.5t-20 -46.5t-8 -55t-1.5 -45q0 -18 0.5 -43.5t6.5 -49t19.5 -40.5t39.5 -17q20 0 33.5 10.5t22 26t12 34t3.5 35.5v102zM338 0l-9 58q-46 -67 -127 -67q-55 0 -87.5 25t-50 63.5t-23 85t-5.5 89.5
q0 46 9 91t30.5 80.5t57.5 57.5t90 22q33 0 62.5 -15t43.5 -47v269h153v-712h-144zM607 522l-96 23l60 169l112 -29z" />
    <glyph glyph-name="Dcroat" unicode="&#x110;" horiz-adv-x="650" 
d="M436 344q0 34 -6.5 70.5t-21.5 65.5t-40 48t-62 19h-68v-162h108v-94h-108v-171h69q34 0 58.5 20t40.5 52t23 72t7 80zM604 344q0 -68 -15 -130.5t-48 -110t-85 -75.5t-126 -28h-254v291h-72v94h72v282h248q77 0 130.5 -27.5t86.5 -72.5t48 -103t15 -120z" />
    <glyph glyph-name="dcroat" unicode="&#x111;" horiz-adv-x="544" 
d="M246 550v80h83v82h153v-82h57v-80h-57v-550h-144l-9 58q-46 -67 -127 -67q-55 0 -87.5 25t-50 63.5t-23 85t-5.5 89.5q0 46 9 91t30.5 80.5t57.5 57.5t90 22q33 0 62.5 -15t43.5 -47v107h-83zM332 299q0 16 -3.5 34.5t-11.5 35t-21 27.5t-33 11q-25 0 -38.5 -19.5
t-20 -46.5t-8 -55t-1.5 -45q0 -18 0.5 -43.5t6.5 -49t19.5 -40.5t39.5 -17q20 0 33.5 10.5t22 26t12 34t3.5 35.5v102z" />
    <glyph glyph-name="Emacron" unicode="&#x112;" horiz-adv-x="522" 
d="M76 0v667h390v-114h-229v-153h211v-112h-211v-173h241v-115h-402zM129 752v80h293v-80h-293z" />
    <glyph glyph-name="emacron" unicode="&#x113;" horiz-adv-x="495" 
d="M313 303q0 15 -2 33.5t-8.5 35t-18.5 27.5t-32 11t-31.5 -11t-18 -27.5t-8.5 -35t-2 -33.5h121v0zM192 212q0 -55 30 -87t85 -32q28 0 58.5 6.5t55.5 19.5l22 -103q-38 -16 -85.5 -20.5t-88.5 -4.5q-59 0 -103 20.5t-73 56.5t-43 84t-14 103q0 48 12.5 93.5t39 80
t67 55.5t97.5 21q62 0 102.5 -19t64.5 -52.5t33.5 -79.5t9.5 -99v-43h-270zM107 608v80h293v-80h-293z" />
    <glyph glyph-name="Ebreve" unicode="&#x114;" horiz-adv-x="522" 
d="M76 0v667h390v-114h-229v-153h211v-112h-211v-173h241v-115h-402zM403 854q0 -19 -6 -40.5t-20.5 -40t-38.5 -31t-60 -12.5t-60 12.5t-38.5 31t-20.5 40t-6 40.5h79q3 -28 16 -39t30 -11t30 11t16 39h79v0z" />
    <glyph glyph-name="ebreve" unicode="&#x115;" horiz-adv-x="495" 
d="M313 303q0 15 -2 33.5t-8.5 35t-18.5 27.5t-32 11t-31.5 -11t-18 -27.5t-8.5 -35t-2 -33.5h121v0zM192 212q0 -55 30 -87t85 -32q28 0 58.5 6.5t55.5 19.5l22 -103q-38 -16 -85.5 -20.5t-88.5 -4.5q-59 0 -103 20.5t-73 56.5t-43 84t-14 103q0 48 12.5 93.5t39 80
t67 55.5t97.5 21q62 0 102.5 -19t64.5 -52.5t33.5 -79.5t9.5 -99v-43h-270zM380 710q0 -19 -6 -40.5t-20.5 -40t-38.5 -31t-60 -12.5t-60 12.5t-38.5 31t-20.5 40t-6 40.5h79q3 -28 16 -39t30 -11t30 11t16 39h79v0z" />
    <glyph glyph-name="Edotaccent" unicode="&#x116;" horiz-adv-x="522" 
d="M76 0v667h390v-114h-229v-153h211v-112h-211v-173h241v-115h-402zM373 792q0 -34 -26 -57.5t-64 -23.5t-64 23.5t-26 57.5t26 57.5t64 23.5t64 -23.5t26 -57.5z" />
    <glyph glyph-name="edotaccent" unicode="&#x117;" horiz-adv-x="495" 
d="M313 303q0 15 -2 33.5t-8.5 35t-18.5 27.5t-32 11t-31.5 -11t-18 -27.5t-8.5 -35t-2 -33.5h121v0zM192 212q0 -55 30 -87t85 -32q28 0 58.5 6.5t55.5 19.5l22 -103q-38 -16 -85.5 -20.5t-88.5 -4.5q-59 0 -103 20.5t-73 56.5t-43 84t-14 103q0 48 12.5 93.5t39 80
t67 55.5t97.5 21q62 0 102.5 -19t64.5 -52.5t33.5 -79.5t9.5 -99v-43h-270zM338 648q0 -34 -26 -57.5t-64 -23.5t-64 23.5t-26 57.5t26 57.5t64 23.5t64 -23.5t26 -57.5z" />
    <glyph glyph-name="Eogonek" unicode="&#x118;" horiz-adv-x="522" 
d="M469 -182q-19 -8 -40.5 -12t-53.5 -4q-50 0 -73 23.5t-23 56.5q0 24 9 42t24.5 32t35.5 24.5t42 19.5h-314v667h390v-114h-229v-153h211v-112h-211v-173h241v-115h-42q-37 -26 -56.5 -46.5t-19.5 -50.5q0 -23 13.5 -37t39.5 -14q14 0 24.5 4.5t18.5 6.5z" />
    <glyph glyph-name="eogonek" unicode="&#x119;" horiz-adv-x="495" 
d="M368 -182q-19 -8 -40.5 -12t-53.5 -4q-50 0 -73 23.5t-23 56.5q0 24 9 42t24.5 32t35.5 25l21 10q-59 0 -102 20q-44 21 -73 57t-43 84t-14 103q0 48 12.5 93.5t39 80t67 55.5t97.5 21q62 0 102.5 -19t64.5 -52.5t33.5 -79.5t9.5 -99v-43h-270q0 -55 30 -87t85 -32
q28 0 58.5 6.5t55.5 19.5l22 -103q-38 -16 -86 -20q-17 -2 -33 -3q-29 -22 -46 -39q-19 -21 -19 -51q0 -23 13.5 -37t39.5 -14q14 0 24.5 4.5t18.5 6.5zM313 303q0 15 -2 33.5t-8.5 35t-18.5 27.5t-32 11t-31.5 -11t-18 -27.5t-8.5 -35t-2 -33.5h121z" />
    <glyph glyph-name="Ecaron" unicode="&#x11a;" horiz-adv-x="522" 
d="M76 0v667h390v-114h-229v-153h211v-112h-211v-173h241v-115h-402zM345 724h-132l-94 136h111l51 -86l51 86h107z" />
    <glyph glyph-name="ecaron" unicode="&#x11b;" horiz-adv-x="495" 
d="M313 303q0 15 -2 33.5t-8.5 35t-18.5 27.5t-32 11t-31.5 -11t-18 -27.5t-8.5 -35t-2 -33.5h121v0zM192 212q0 -55 30 -87t85 -32q28 0 58.5 6.5t55.5 19.5l22 -103q-38 -16 -85.5 -20.5t-88.5 -4.5q-59 0 -103 20.5t-73 56.5t-43 84t-14 103q0 48 12.5 93.5t39 80
t67 55.5t97.5 21q62 0 102.5 -19t64.5 -52.5t33.5 -79.5t9.5 -99v-43h-270zM319 580h-132l-94 136h111l51 -86l51 86h107z" />
    <glyph glyph-name="Gcircumflex" unicode="&#x11c;" horiz-adv-x="638" 
d="M583 26q-27 -10 -52 -17t-52.5 -11.5t-59.5 -6.5t-72 -2q-85 0 -142.5 28.5t-93 77t-50.5 113t-15 136.5q0 69 20.5 130t62.5 106t106 71.5t150 26.5q78 0 121 -7.5t69 -16.5l-26 -115q-60 25 -152 25q-50 0 -85 -15.5t-56.5 -44t-31.5 -69t-10 -89.5t6 -93.5t22.5 -78.5
t45.5 -54t76 -20q23 0 37.5 3t27.5 8v162h-91v110h245v-357v0zM401 724l-51 86l-51 -86h-107l94 136h132l94 -136h-111z" />
    <glyph glyph-name="gcircumflex" unicode="&#x11d;" horiz-adv-x="544" 
d="M332 299q0 16 -3.5 34.5t-11.5 34.5t-21 27t-33 11q-24 0 -38 -17.5t-21 -42.5t-9 -51.5t-1 -45.5q1 -27 2.5 -53.5t8.5 -47.5t20 -33.5t36 -12.5q20 0 33.5 10.5t22 26.5t12 34.5t3.5 34.5v91zM482 17q0 -54 -20.5 -94.5t-55 -67.5t-80 -40t-94.5 -13q-42 0 -87.5 4
t-84.5 18l29 107q26 -12 55.5 -18t58.5 -6q21 0 43.5 3.5t41 13t30 28t11.5 48.5v64q-22 -35 -55.5 -48t-72.5 -14q-48 -1 -80 22.5t-50.5 60t-26.5 81.5t-8 88q0 46 9 91t30.5 80.5t57.5 57.5t90 22q33 0 62.5 -15t43.5 -47l9 53h144v-479v0zM324 580l-51 86l-51 -86h-107
l94 136h132l94 -136h-111z" />
    <glyph glyph-name="Gbreve" unicode="&#x11e;" horiz-adv-x="638" 
d="M583 26q-27 -10 -52 -17t-52.5 -11.5t-59.5 -6.5t-72 -2q-85 0 -142.5 28.5t-93 77t-50.5 113t-15 136.5q0 69 20.5 130t62.5 106t106 71.5t150 26.5q78 0 121 -7.5t69 -16.5l-26 -115q-60 25 -152 25q-50 0 -85 -15.5t-56.5 -44t-31.5 -69t-10 -89.5t6 -93.5t22.5 -78.5
t45.5 -54t76 -20q23 0 37.5 3t27.5 8v162h-91v110h245v-357v0zM483 854q0 -19 -6 -40.5t-20.5 -40t-38.5 -31t-60 -12.5t-60 12.5t-38.5 31t-20.5 40t-6 40.5h79q3 -28 16 -39t30 -11t30 11t16 39h79v0z" />
    <glyph glyph-name="gbreve" unicode="&#x11f;" horiz-adv-x="544" 
d="M332 299q0 16 -3.5 34.5t-11.5 34.5t-21 27t-33 11q-24 0 -38 -17.5t-21 -42.5t-9 -51.5t-1 -45.5q1 -27 2.5 -53.5t8.5 -47.5t20 -33.5t36 -12.5q20 0 33.5 10.5t22 26.5t12 34.5t3.5 34.5v91zM482 17q0 -54 -20.5 -94.5t-55 -67.5t-80 -40t-94.5 -13q-42 0 -87.5 4
t-84.5 18l29 107q26 -12 55.5 -18t58.5 -6q21 0 43.5 3.5t41 13t30 28t11.5 48.5v64q-22 -35 -55.5 -48t-72.5 -14q-48 -1 -80 22.5t-50.5 60t-26.5 81.5t-8 88q0 46 9 91t30.5 80.5t57.5 57.5t90 22q33 0 62.5 -15t43.5 -47l9 53h144v-479v0zM393 710q0 -19 -6 -40.5
t-20.5 -40t-38.5 -31t-60 -12.5t-60 12.5t-38.5 31t-20.5 40t-6 40.5h79q3 -28 16 -39t30 -11t30 11t16 39h79v0z" />
    <glyph glyph-name="Gdotaccent" unicode="&#x120;" horiz-adv-x="638" 
d="M583 26q-27 -10 -52 -17t-52.5 -11.5t-59.5 -6.5t-72 -2q-85 0 -142.5 28.5t-93 77t-50.5 113t-15 136.5q0 69 20.5 130t62.5 106t106 71.5t150 26.5q78 0 121 -7.5t69 -16.5l-26 -115q-60 25 -152 25q-50 0 -85 -15.5t-56.5 -44t-31.5 -69t-10 -89.5t6 -93.5t22.5 -78.5
t45.5 -54t76 -20q23 0 37.5 3t27.5 8v162h-91v110h245v-357v0zM464 802q0 -34 -26 -57.5t-64 -23.5t-64 23.5t-26 57.5t26 57.5t64 23.5t64 -23.5t26 -57.5z" />
    <glyph glyph-name="gdotaccent" unicode="&#x121;" horiz-adv-x="544" 
d="M332 299q0 16 -3.5 34.5t-11.5 34.5t-21 27t-33 11q-24 0 -38 -17.5t-21 -42.5t-9 -51.5t-1 -45.5q1 -27 2.5 -53.5t8.5 -47.5t20 -33.5t36 -12.5q20 0 33.5 10.5t22 26.5t12 34.5t3.5 34.5v91zM482 17q0 -54 -20.5 -94.5t-55 -67.5t-80 -40t-94.5 -13q-42 0 -87.5 4
t-84.5 18l29 107q26 -12 55.5 -18t58.5 -6q21 0 43.5 3.5t41 13t30 28t11.5 48.5v64q-22 -35 -55.5 -48t-72.5 -14q-48 -1 -80 22.5t-50.5 60t-26.5 81.5t-8 88q0 46 9 91t30.5 80.5t57.5 57.5t90 22q33 0 62.5 -15t43.5 -47l9 53h144v-479v0zM355 648q0 -34 -26 -57.5
t-64 -23.5t-64 23.5t-26 57.5t26 57.5t64 23.5t64 -23.5t26 -57.5z" />
    <glyph glyph-name="Gcommaaccent" unicode="&#x122;" horiz-adv-x="638" 
d="M583 26q-27 -10 -52 -17t-52.5 -11.5t-59.5 -6.5t-72 -2q-85 0 -142.5 28.5t-93 77t-50.5 113t-15 136.5q0 69 20.5 130t62.5 106t106 71.5t150 26.5q78 0 121 -7.5t69 -16.5l-26 -115q-60 25 -152 25q-50 0 -85 -15.5t-56.5 -44t-31.5 -69t-10 -89.5t6 -93.5t22.5 -78.5
t45.5 -54t76 -20q23 0 37.5 3t27.5 8v162h-91v110h245v-357v0zM366 -224l-96 23l60 169l112 -29z" />
    <glyph glyph-name="gcommaaccent" unicode="&#x123;" horiz-adv-x="544" 
d="M332 299q0 16 -3.5 34.5t-11.5 34.5t-21 27t-33 11q-24 0 -38 -17.5t-21 -42.5t-9 -51.5t-1 -45.5q1 -27 2.5 -53.5t8.5 -47.5t20 -33.5t36 -12.5q20 0 33.5 10.5t22 26.5t12 34.5t3.5 34.5v91zM482 17q0 -54 -20.5 -94.5t-55 -67.5t-80 -40t-94.5 -13q-42 0 -87.5 4
t-84.5 18l29 107q26 -12 55.5 -18t58.5 -6q21 0 43.5 3.5t41 13t30 28t11.5 48.5v64q-22 -35 -55.5 -48t-72.5 -14q-48 -1 -80 22.5t-50.5 60t-26.5 81.5t-8 88q0 46 9 91t30.5 80.5t57.5 57.5t90 22q33 0 62.5 -15t43.5 -47l9 53h144v-479v0zM270 739l96 -23l-60 -169
l-112 29z" />
    <glyph glyph-name="Hcircumflex" unicode="&#x124;" horiz-adv-x="648" 
d="M410 0v286h-172v-286h-162v667h162v-265h172v265h162v-667h-162zM376 724l-51 86l-51 -86h-107l94 136h132l94 -136h-111z" />
    <glyph glyph-name="hcircumflex" unicode="&#x125;" horiz-adv-x="547" 
d="M333 0v336q0 27 -11 47.5t-45 20.5q-18 0 -30 -8t-19 -21.5t-10 -30.5t-3 -35v-309h-153v712h153v-279q10 16 21 29.5t25.5 23t34 14.5t46.5 5q37 0 64 -12t45 -33t26.5 -49.5t8.5 -60.5v-350h-153zM271 750l-51 86l-51 -86h-107l94 136h132l94 -136h-111z" />
    <glyph glyph-name="Hbar" unicode="&#x126;" horiz-adv-x="648" 
d="M410 0v286h-172v-286h-162v667h162v-107h172v107h162v-667h-162zM410 402v78h-172v-78h172z" />
    <glyph glyph-name="hbar" unicode="&#x127;" horiz-adv-x="547" 
d="M4 550v80h58v82h153v-82h82v-80h-82v-117q10 16 21 29.5t25.5 23t34 14.5t46.5 5q37 0 64 -12t45 -33t26.5 -49.5t8.5 -60.5v-350h-153v336q0 27 -11 47.5t-45 20.5q-18 0 -30 -8t-19 -21.5t-10 -30.5t-3 -35v-309h-153v550h-58z" />
    <glyph glyph-name="Itilde" unicode="&#x128;" horiz-adv-x="314" 
d="M76 0v667h162v-667h-162zM316 858q0 -21 -5.5 -44t-17 -42.5t-29 -32.5t-42.5 -13q-18 0 -34 6.5t-31 14.5t-28.5 14.5t-25.5 6.5q-14 0 -22 -15t-8 -27h-71q1 20 6.5 43t17 43t29 33t41.5 13q18 0 35 -6.5t32 -14.5t28.5 -14.5t25.5 -6.5q15 0 21 15t7 27h71v0z" />
    <glyph glyph-name="itilde" unicode="&#x129;" 
d="M95 0v394h-66v102h219v-496h-153zM317 714q0 -21 -5.5 -44t-17 -42.5t-29 -32.5t-42.5 -13q-18 0 -34 6.5t-31 14.5t-28.5 14.5t-25.5 6.5q-14 0 -22 -15t-8 -27h-71q1 20 6.5 43t17 43t29 33t41.5 13q18 0 35 -6.5t32 -14.5t28.5 -14.5t25.5 -6.5q15 0 21 15t7 27h71v0z
" />
    <glyph glyph-name="Imacron" unicode="&#x12a;" horiz-adv-x="314" 
d="M76 0v667h162v-667h-162zM11 752v80h293v-80h-293z" />
    <glyph glyph-name="imacron" unicode="&#x12b;" 
d="M95 0v394h-66v102h219v-496h-153zM13 608v80h293v-80h-293z" />
    <glyph glyph-name="Iogonek" unicode="&#x12e;" horiz-adv-x="314" 
d="M230 -182q-19 -8 -40.5 -12t-53.5 -4q-50 0 -73 23.5t-23 56.5q0 24 9 42t24.5 32t35.5 24.5t42 19.5h-75v667h162v-667h-41q-37 -26 -56.5 -46.5t-19.5 -50.5q0 -23 13.5 -37t39.5 -14q14 0 24.5 4.5t18.5 6.5z" />
    <glyph glyph-name="iogonek" unicode="&#x12f;" 
d="M236 -182q-19 -8 -40.5 -12t-53.5 -4q-50 0 -73 23.5t-23 56.5q0 24 9 42t24.5 32t35.5 24.5t42 19.5h-62v394h-66v102h219v-496h-45q-37 -26 -56.5 -46.5t-19.5 -50.5q0 -23 13.5 -37t39.5 -14q14 0 24.5 4.5t18.5 6.5zM256 648q0 -34 -26 -57.5t-64 -23.5t-64 23.5
t-26 57.5t26 57.5t64 23.5t64 -23.5t26 -57.5z" />
    <glyph glyph-name="Idotaccent" unicode="&#x130;" horiz-adv-x="314" 
d="M76 0v667h162v-667h-162zM247 792q0 -34 -26 -57.5t-64 -23.5t-64 23.5t-26 57.5t26 57.5t64 23.5t64 -23.5t26 -57.5z" />
    <glyph glyph-name="dotlessi" unicode="&#x131;" 
d="M95 0v394h-66v102h219v-496h-153z" />
    <glyph glyph-name="Jcircumflex" unicode="&#x134;" horiz-adv-x="434" 
d="M358 49q0 -44 -11.5 -81.5t-37 -64.5t-65.5 -42.5t-97 -15.5q-42 0 -80.5 5t-64.5 14l22 112q27 -8 46.5 -9.5t38.5 -1.5q50 0 68.5 22t18.5 53v513h-159v114h321v-618zM271 724l-51 86l-51 -86h-107l94 136h132l94 -136h-111z" />
    <glyph glyph-name="jcircumflex" unicode="&#x135;" 
d="M248 -33q0 -83 -43 -124t-122 -41q-24 0 -46.5 2t-40.5 8l27 105q6 -2 13.5 -4t16.5 -2q26 0 34 23.5t8 59.5v400h-66v102h219v-529v0zM208 580l-51 86l-51 -86h-107l94 136h132l94 -136h-111z" />
    <glyph glyph-name="Kcommaaccent" unicode="&#x136;" horiz-adv-x="594" 
d="M403 0l-165 318v-318h-162v667h162v-278l162 278h180l-190 -308l199 -359h-186zM281 -205l-96 23l60 169l112 -29z" />
    <glyph glyph-name="kcommaaccent" unicode="&#x137;" horiz-adv-x="488" 
d="M314 0l-100 226v-226h-152v712h152v-400l99 184h163l-131 -217l138 -279h-169zM231 -214l-96 23l60 169l112 -29z" />
    <glyph glyph-name="Lacute" unicode="&#x139;" horiz-adv-x="466" 
d="M76 0v667h162v-544h209v-123h-371zM212 724h-100l73 136h132z" />
    <glyph glyph-name="lacute" unicode="&#x13a;" 
d="M296 1q-3 -2 -13.5 -4t-23 -3.5t-24.5 -2t-18 -0.5q-86 0 -120.5 33t-34.5 105v583h153v-542q0 -36 6.5 -56t27.5 -20q9 0 18.5 1.5t15.5 3.5l13 -98v0zM173 747h-100l73 136h132z" />
    <glyph glyph-name="Lcommaaccent" unicode="&#x13b;" horiz-adv-x="466" 
d="M76 0v667h162v-544h209v-123h-371zM245 -214l-96 23l60 169l112 -29z" />
    <glyph glyph-name="lcommaaccent" unicode="&#x13c;" 
d="M296 1q-3 -2 -13.5 -4t-23 -3.5t-24.5 -2t-18 -0.5q-86 0 -120.5 33t-34.5 105v583h153v-542q0 -36 6.5 -56t27.5 -20q9 0 18.5 1.5t15.5 3.5l13 -98v0zM160 -224l-96 23l60 169l112 -29z" />
    <glyph glyph-name="Lcaron" unicode="&#x13d;" horiz-adv-x="466" 
d="M76 0v667h162v-544h209v-123h-371zM391 476l-96 23l60 169l112 -29z" />
    <glyph glyph-name="lcaron" unicode="&#x13e;" 
d="M296 1q-3 -2 -13.5 -4t-23 -3.5t-24.5 -2t-18 -0.5q-86 0 -120.5 33t-34.5 105v583h153v-542q0 -36 6.5 -56t27.5 -20q9 0 18.5 1.5t15.5 3.5l13 -98v0zM340 522l-96 23l60 169l112 -29z" />
    <glyph glyph-name="Ldot" unicode="&#x13f;" horiz-adv-x="466" 
d="M76 0v667h162v-544h209v-123h-371zM478 420q0 -34 -26 -57.5t-64 -23.5t-64 23.5t-26 57.5t26 57.5t64 23.5t64 -23.5t26 -57.5z" />
    <glyph glyph-name="ldot" unicode="&#x140;" horiz-adv-x="445" 
d="M296 1q-3 -2 -13.5 -4t-23 -3.5t-24.5 -2t-18 -0.5q-86 0 -120.5 33t-34.5 105v583h153v-542q0 -36 6.5 -56t27.5 -20q9 0 18.5 1.5t15.5 3.5l13 -98v0zM442 439q0 -34 -26 -57.5t-64 -23.5t-64 23.5t-26 57.5t26 57.5t64 23.5t64 -23.5t26 -57.5z" />
    <glyph glyph-name="Lslash" unicode="&#x141;" horiz-adv-x="466" 
d="M76 0v272l-60 -49v102l60 49v293h162v-203l114 88v-102l-114 -88v-239h209v-123h-371z" />
    <glyph glyph-name="lslash" unicode="&#x142;" 
d="M296 1q-3 -2 -13.5 -4t-23 -3.5t-24.5 -2t-18 -0.5q-86 0 -120.5 33t-34.5 105v171l-54 -45v102l54 45v310h153v-215l60 44v-102l-60 -44v-225q0 -36 6.5 -56t27.5 -20q9 0 18.5 1.5t15.5 3.5l13 -98v0z" />
    <glyph glyph-name="Nacute" unicode="&#x143;" horiz-adv-x="668" 
d="M372 0l-158 491v-491h-138v667h220l158 -491v491h138v-667h-220zM364 724h-100l73 136h132z" />
    <glyph glyph-name="nacute" unicode="&#x144;" horiz-adv-x="548" 
d="M333 0v336q0 27 -10.5 48t-44.5 21q-18 0 -30.5 -8.5t-19.5 -22t-10 -30.5t-3 -35v-309h-153v496h136l9 -65q15 32 47 53t88 21q37 0 64 -12t45 -33t26.5 -49.5t8.5 -60.5v-350h-153zM303 580h-100l73 136h132z" />
    <glyph glyph-name="Ncommaaccent" unicode="&#x145;" horiz-adv-x="668" 
d="M372 0l-158 491v-491h-138v667h220l158 -491v491h138v-667h-220zM347 -214l-96 23l60 169l112 -29z" />
    <glyph glyph-name="ncommaaccent" unicode="&#x146;" horiz-adv-x="548" 
d="M333 0v336q0 27 -10.5 48t-44.5 21q-18 0 -30.5 -8.5t-19.5 -22t-10 -30.5t-3 -35v-309h-153v496h136l9 -65q15 32 47 53t88 21q37 0 64 -12t45 -33t26.5 -49.5t8.5 -60.5v-350h-153zM265 -214l-96 23l60 169l112 -29z" />
    <glyph glyph-name="Ncaron" unicode="&#x147;" horiz-adv-x="668" 
d="M372 0l-158 491v-491h-138v667h220l158 -491v491h138v-667h-220zM402 724h-132l-94 136h111l51 -86l51 86h107z" />
    <glyph glyph-name="ncaron" unicode="&#x148;" horiz-adv-x="548" 
d="M333 0v336q0 27 -10.5 48t-44.5 21q-18 0 -30.5 -8.5t-19.5 -22t-10 -30.5t-3 -35v-309h-153v496h136l9 -65q15 32 47 53t88 21q37 0 64 -12t45 -33t26.5 -49.5t8.5 -60.5v-350h-153zM344 580h-132l-94 136h111l51 -86l51 86h107z" />
    <glyph glyph-name="Omacron" unicode="&#x14c;" horiz-adv-x="688" 
d="M474 343q0 32 -4.5 70.5t-18.5 72.5t-39.5 56.5t-67.5 22.5q-41 0 -66.5 -23t-39.5 -56.5t-19 -72.5t-5 -70q0 -33 3.5 -74.5t17 -78t39.5 -62t70 -25.5t69.5 25.5t39 62t17.5 78t4 74.5zM642 344q0 -74 -16 -138.5t-51.5 -112.5t-92 -76t-138.5 -28q-83 0 -140 27.5
t-92 75.5t-50.5 112.5t-15.5 139.5q0 69 18.5 130t56 106.5t93 71.5t130.5 26q79 0 135.5 -25t92.5 -69t53 -105.5t17 -134.5zM198 752v80h293v-80h-293z" />
    <glyph glyph-name="omacron" unicode="&#x14d;" horiz-adv-x="530" 
d="M335 254q0 22 -2 49t-9.5 50t-21.5 38.5t-37 15.5t-37 -15.5t-21.5 -38.5t-9.5 -50t-2 -49q0 -24 2 -52.5t9 -53t21 -41.5t38 -17t38 17t21 41.5t9 53t2 52.5zM494 255q0 -50 -11.5 -97t-38 -84.5t-70.5 -60t-109 -22.5q-67 0 -111 22t-70.5 59t-37 84.5t-10.5 98.5
q0 46 13.5 91t41 80t71 57t103.5 22q62 0 105.5 -21t71 -56t40 -80t12.5 -93zM120 608v80h293v-80h-293z" />
    <glyph glyph-name="Obreve" unicode="&#x14e;" horiz-adv-x="688" 
d="M474 343q0 32 -4.5 70.5t-18.5 72.5t-39.5 56.5t-67.5 22.5q-41 0 -66.5 -23t-39.5 -56.5t-19 -72.5t-5 -70q0 -33 3.5 -74.5t17 -78t39.5 -62t70 -25.5t69.5 25.5t39 62t17.5 78t4 74.5zM642 344q0 -74 -16 -138.5t-51.5 -112.5t-92 -76t-138.5 -28q-83 0 -140 27.5
t-92 75.5t-50.5 112.5t-15.5 139.5q0 69 18.5 130t56 106.5t93 71.5t130.5 26q79 0 135.5 -25t92.5 -69t53 -105.5t17 -134.5zM468 854q0 -19 -6 -40.5t-20.5 -40t-38.5 -31t-60 -12.5t-60 12.5t-38.5 31t-20.5 40t-6 40.5h79q3 -28 16 -39t30 -11t30 11t16 39h79v0z" />
    <glyph glyph-name="obreve" unicode="&#x14f;" horiz-adv-x="530" 
d="M335 254q0 22 -2 49t-9.5 50t-21.5 38.5t-37 15.5t-37 -15.5t-21.5 -38.5t-9.5 -50t-2 -49q0 -24 2 -52.5t9 -53t21 -41.5t38 -17t38 17t21 41.5t9 53t2 52.5zM494 255q0 -50 -11.5 -97t-38 -84.5t-70.5 -60t-109 -22.5q-67 0 -111 22t-70.5 59t-37 84.5t-10.5 98.5
q0 46 13.5 91t41 80t71 57t103.5 22q62 0 105.5 -21t71 -56t40 -80t12.5 -93zM391 710q0 -19 -6 -40.5t-20.5 -40t-38.5 -31t-60 -12.5t-60 12.5t-38.5 31t-20.5 40t-6 40.5h79q3 -28 16 -39t30 -11t30 11t16 39h79v0z" />
    <glyph glyph-name="Ohungarumlaut" unicode="&#x150;" horiz-adv-x="688" 
d="M474 343q0 32 -4.5 70.5t-18.5 72.5t-39.5 56.5t-67.5 22.5q-41 0 -66.5 -23t-39.5 -56.5t-19 -72.5t-5 -70q0 -33 3.5 -74.5t17 -78t39.5 -62t70 -25.5t69.5 25.5t39 62t17.5 78t4 74.5zM642 344q0 -74 -16 -138.5t-51.5 -112.5t-92 -76t-138.5 -28q-83 0 -140 27.5
t-92 75.5t-50.5 112.5t-15.5 139.5q0 69 18.5 130t56 106.5t93 71.5t130.5 26q79 0 135.5 -25t92.5 -69t53 -105.5t17 -134.5zM285 724h-100l73 136h132zM477 724h-100l73 136h132z" />
    <glyph glyph-name="ohungarumlaut" unicode="&#x151;" horiz-adv-x="530" 
d="M335 254q0 22 -2 49t-9.5 50t-21.5 38.5t-37 15.5t-37 -15.5t-21.5 -38.5t-9.5 -50t-2 -49q0 -24 2 -52.5t9 -53t21 -41.5t38 -17t38 17t21 41.5t9 53t2 52.5zM494 255q0 -50 -11.5 -97t-38 -84.5t-70.5 -60t-109 -22.5q-67 0 -111 22t-70.5 59t-37 84.5t-10.5 98.5
q0 46 13.5 91t41 80t71 57t103.5 22q62 0 105.5 -21t71 -56t40 -80t12.5 -93zM206 580h-100l73 136h132zM398 580h-100l73 136h132z" />
    <glyph glyph-name="Racute" unicode="&#x154;" horiz-adv-x="608" 
d="M372 472q0 36 -21.5 59t-63.5 23h-49v-176h38q46 0 71 24t25 70zM404 0q-14 24 -24 49l-21 50l-50 114q-10 22 -20.5 37.5t-36.5 15.5h-14v-266h-162v667h244q46 0 86 -11t69.5 -34t46.5 -59t17 -85q0 -45 -14 -75.5t-35 -50t-45 -30t-43 -17.5q25 -5 46 -27t32 -48
l57 -131q11 -26 23 -50t26 -49h-182zM313 724h-100l73 136h132z" />
    <glyph glyph-name="racute" unicode="&#x155;" horiz-adv-x="379" 
d="M330 371q-8 2 -15.5 3.5t-15.5 1.5q-26 0 -42.5 -11t-25.5 -29t-12.5 -40.5t-3.5 -45.5v-250h-153v496h142l9 -64q23 39 51.5 56t67.5 17q7 0 18.5 -1.5t18.5 -4.5zM239 580h-100l73 136h132z" />
    <glyph glyph-name="Rcommaaccent" unicode="&#x156;" horiz-adv-x="608" 
d="M372 472q0 36 -21.5 59t-63.5 23h-49v-176h38q46 0 71 24t25 70zM404 0q-14 24 -24 49l-21 50l-50 114q-10 22 -20.5 37.5t-36.5 15.5h-14v-266h-162v667h244q46 0 86 -11t69.5 -34t46.5 -59t17 -85q0 -45 -14 -75.5t-35 -50t-45 -30t-43 -17.5q25 -5 46 -27t32 -48
l57 -131q11 -26 23 -50t26 -49h-182zM290 -205l-96 23l60 169l112 -29z" />
    <glyph glyph-name="rcommaaccent" unicode="&#x157;" horiz-adv-x="379" 
d="M330 371q-8 2 -15.5 3.5t-15.5 1.5q-26 0 -42.5 -11t-25.5 -29t-12.5 -40.5t-3.5 -45.5v-250h-153v496h142l9 -64q23 39 51.5 56t67.5 17q7 0 18.5 -1.5t18.5 -4.5zM143 -214l-96 23l60 169l112 -29z" />
    <glyph glyph-name="Rcaron" unicode="&#x158;" horiz-adv-x="608" 
d="M372 472q0 36 -21.5 59t-63.5 23h-49v-176h38q46 0 71 24t25 70zM404 0q-14 24 -24 49l-21 50l-50 114q-10 22 -20.5 37.5t-36.5 15.5h-14v-266h-162v667h244q46 0 86 -11t69.5 -34t46.5 -59t17 -85q0 -45 -14 -75.5t-35 -50t-45 -30t-43 -17.5q25 -5 46 -27t32 -48
l57 -131q11 -26 23 -50t26 -49h-182zM359 724h-132l-94 136h111l51 -86l51 86h107z" />
    <glyph glyph-name="rcaron" unicode="&#x159;" horiz-adv-x="379" 
d="M330 371q-8 2 -15.5 3.5t-15.5 1.5q-26 0 -42.5 -11t-25.5 -29t-12.5 -40.5t-3.5 -45.5v-250h-153v496h142l9 -64q23 39 51.5 56t67.5 17q7 0 18.5 -1.5t18.5 -4.5zM261 580h-132l-94 136h111l51 -86l51 86h107z" />
    <glyph glyph-name="Sacute" unicode="&#x15a;" horiz-adv-x="526" 
d="M478 198q0 -56 -21.5 -95.5t-57.5 -64.5t-82 -37t-95 -12q-44 0 -88 3t-86 16l2 118q29 -14 64.5 -20.5t67.5 -6.5q23 0 46 3.5t41 13.5t29.5 28t11.5 46q0 35 -19.5 53.5t-48.5 32t-63 25t-63 32t-48.5 54t-19.5 90.5q0 51 20.5 88.5t54 62.5t77 37.5t89.5 12.5
q43 0 84.5 -5t83.5 -16l-29 -114q-28 12 -58 17.5t-61 5.5q-20 0 -38 -3.5t-31.5 -12t-21.5 -23.5t-8 -38q0 -32 20 -50t49.5 -31.5t64.5 -27t64.5 -35t49.5 -56.5t20 -91zM296 724h-100l73 136h132z" />
    <glyph glyph-name="sacute" unicode="&#x15b;" horiz-adv-x="418" 
d="M386 160q0 -47 -17 -79.5t-45.5 -52.5t-66 -28.5t-79.5 -8.5q-37 0 -74 4.5t-72 17.5l28 100q27 -14 57.5 -18.5t60.5 -4.5q55 0 55 58q0 21 -14 33.5t-35 22t-45 19t-45 25t-35 40t-14 64.5q0 44 16.5 73.5t44.5 47t63.5 25t73.5 7.5q35 0 66.5 -4t65.5 -15l-29 -97
q-23 11 -50 14.5t-52 3.5q-22 0 -35.5 -13t-13.5 -35q0 -19 14 -31t35.5 -21.5l46 -19.5t46 -26t35.5 -40t14 -61zM265 580h-100l73 136h132z" />
    <glyph glyph-name="Scircumflex" unicode="&#x15c;" horiz-adv-x="526" 
d="M478 198q0 -56 -21.5 -95.5t-57.5 -64.5t-82 -37t-95 -12q-44 0 -88 3t-86 16l2 118q29 -14 64.5 -20.5t67.5 -6.5q23 0 46 3.5t41 13.5t29.5 28t11.5 46q0 35 -19.5 53.5t-48.5 32t-63 25t-63 32t-48.5 54t-19.5 90.5q0 51 20.5 88.5t54 62.5t77 37.5t89.5 12.5
q43 0 84.5 -5t83.5 -16l-29 -114q-28 12 -58 17.5t-61 5.5q-20 0 -38 -3.5t-31.5 -12t-21.5 -23.5t-8 -38q0 -32 20 -50t49.5 -31.5t64.5 -27t64.5 -35t49.5 -56.5t20 -91zM314 724l-51 86l-51 -86h-107l94 136h132l94 -136h-111z" />
    <glyph glyph-name="scircumflex" unicode="&#x15d;" horiz-adv-x="418" 
d="M386 160q0 -47 -17 -79.5t-45.5 -52.5t-66 -28.5t-79.5 -8.5q-37 0 -74 4.5t-72 17.5l28 100q27 -14 57.5 -18.5t60.5 -4.5q55 0 55 58q0 21 -14 33.5t-35 22t-45 19t-45 25t-35 40t-14 64.5q0 44 16.5 73.5t44.5 47t63.5 25t73.5 7.5q35 0 66.5 -4t65.5 -15l-29 -97
q-23 11 -50 14.5t-52 3.5q-22 0 -35.5 -13t-13.5 -35q0 -19 14 -31t35.5 -21.5l46 -19.5t46 -26t35.5 -40t14 -61zM274 580l-51 86l-51 -86h-107l94 136h132l94 -136h-111z" />
    <glyph glyph-name="Scedilla" unicode="&#x15e;" horiz-adv-x="526" 
d="M362 -115q0 -22 -10.5 -37.5t-27.5 -25.5t-37.5 -15t-41.5 -5q-32 0 -62.5 6.5t-43.5 14.5l19 45l27.5 -10.5t43.5 -6.5q20 0 34.5 7t14.5 27q0 14 -12.5 22.5t-28.5 8.5q-14 0 -21.5 -2t-14.5 -5l-20 25l42 55h-1q-44 0 -88 3t-86 16l2 118q29 -14 64.5 -20.5t67.5 -6.5
q23 0 46 3.5t41 13.5t29.5 28t11.5 46q0 35 -19.5 53.5t-48.5 32t-63 25t-63 32t-48.5 54t-19.5 90.5q0 51 20.5 88.5t54 62.5t77 37.5t89.5 12.5q43 0 84.5 -5t83.5 -16l-29 -114q-28 12 -58 17.5t-61 5.5q-20 0 -38 -3.5t-31.5 -12t-21.5 -23.5t-8 -38q0 -32 20 -50
t49.5 -31.5t64.5 -27t64.5 -35t49.5 -56.5t20 -67v-39q-3 -47 -23 -83.5t-56 -61.5t-82 -37q-19 -5 -38 -8l-37 -47q15 5 33 5q34 0 60.5 -16.5t26.5 -49.5z" />
    <glyph glyph-name="scedilla" unicode="&#x15f;" horiz-adv-x="418" 
d="M322 -115q0 -22 -10.5 -37.5t-27.5 -25.5t-37.5 -15t-41.5 -5q-32 0 -62.5 6.5t-43.5 14.5l19 45l27.5 -10.5t43.5 -6.5q20 0 34.5 7t14.5 27q0 14 -12.5 22.5t-28.5 8.5q-14 0 -21.5 -2t-14.5 -5l-20 25l44 57h-7q-37 0 -74 4.5t-72 17.5l28 100q27 -14 57.5 -18.5
t60.5 -4.5q55 0 55 58q0 21 -14 33.5t-35 22t-45 19t-45 25t-35 40t-14 64.5q0 44 16.5 73.5t44.5 47t63.5 25t73.5 7.5q35 0 66.5 -4t65.5 -15l-29 -97q-23 11 -50 14.5t-52 3.5q-22 0 -35.5 -13t-13.5 -35q0 -19 14 -31t35.5 -21.5l46 -19.5t46 -26t35.5 -40t14 -61
q0 -47 -17 -79.5t-45.5 -52.5t-66.5 -28q-7 -2 -15 -3l-40 -51q15 5 33 5q34 0 60.5 -16.5t26.5 -49.5z" />
    <glyph glyph-name="Tcommaaccent" unicode="&#x162;" horiz-adv-x="474" 
d="M318 544v-544h-162v544h-144v123h450v-123h-144zM236 -214l-96 23l60 169l112 -29z" />
    <glyph glyph-name="tcommaaccent" unicode="&#x163;" horiz-adv-x="364" 
d="M345 2q-20 -8 -52 -9.5t-67 -1.5q-64 0 -100.5 34.5t-36.5 103.5v263h-70v104h70v112l154 33v-145h95v-104h-95v-222q0 -42 12 -58t38 -16h22t21 5l9 -99v0zM178 -214l-96 23l60 169l112 -29z" />
    <glyph glyph-name="Tcaron" unicode="&#x164;" horiz-adv-x="474" 
d="M318 544v-544h-162v544h-144v123h450v-123h-144zM303 724h-132l-94 136h111l51 -86l51 86h107z" />
    <glyph glyph-name="tcaron" unicode="&#x165;" horiz-adv-x="364" 
d="M345 2q-20 -8 -52 -9.5t-67 -1.5q-64 0 -100.5 34.5t-36.5 103.5v263h-70v104h70v112l154 33v-145h95v-104h-95v-222q0 -42 12 -58t38 -16h22t21 5l9 -99v0zM380 526l-96 23l60 169l112 -29z" />
    <glyph glyph-name="Tbar" unicode="&#x166;" horiz-adv-x="474" 
d="M90 370v80h66v94h-144v123h450v-123h-144v-94h68v-80h-68v-370h-162v370h-66z" />
    <glyph glyph-name="tbar" unicode="&#x167;" horiz-adv-x="364" 
d="M28 235v80h61v77h-70v104h70v112l154 33v-145h95v-104h-95v-77h78v-80h-78v-65q0 -42 12 -58t38 -16h22q8 0 21 5l9 -99q-20 -8 -52 -9.5t-67 -1.5q-64 0 -100.5 34.5t-36.5 103.5v106h-61z" />
    <glyph glyph-name="Utilde" unicode="&#x168;" horiz-adv-x="650" 
d="M582 241q0 -60 -18 -107t-51.5 -79.5t-81 -49t-106.5 -16.5q-122 0 -189.5 65.5t-67.5 186.5v426h162v-416q0 -30 4 -56t15 -45t29 -30t47 -11q27 0 45 11t29.5 30t16 45t4.5 56v416h162v-426v0zM488 858q0 -21 -5.5 -44t-17 -42.5t-29 -32.5t-42.5 -13q-18 0 -34 6.5
t-31 14.5t-28.5 14.5t-25.5 6.5q-14 0 -22 -15t-8 -27h-71q1 20 6.5 43t17 43t29 33t41.5 13q18 0 35 -6.5t32 -14.5t28.5 -14.5t25.5 -6.5q15 0 21 15t7 27h71v0z" />
    <glyph glyph-name="utilde" unicode="&#x169;" horiz-adv-x="540" 
d="M342 0l-9 65q-15 -32 -46.5 -53t-85.5 -21q-36 0 -63 12t-44 33t-25.5 49.5t-8.5 60.5v350h153v-334q0 -27 10 -46.5t43 -19.5t46 27.5t13 65.5v307h153v-496h-136zM429 714q0 -21 -5.5 -44t-17 -42.5t-29 -32.5t-42.5 -13q-18 0 -34 6.5t-31 14.5t-28.5 14.5t-25.5 6.5
q-14 0 -22 -15t-8 -27h-71q1 20 6.5 43t17 43t29 33t41.5 13q18 0 35 -6.5t32 -14.5t28.5 -14.5t25.5 -6.5q15 0 21 15t7 27h71v0z" />
    <glyph glyph-name="Umacron" unicode="&#x16a;" horiz-adv-x="650" 
d="M582 241q0 -60 -18 -107t-51.5 -79.5t-81 -49t-106.5 -16.5q-122 0 -189.5 65.5t-67.5 186.5v426h162v-416q0 -30 4 -56t15 -45t29 -30t47 -11q27 0 45 11t29.5 30t16 45t4.5 56v416h162v-426v0zM183 752v80h293v-80h-293z" />
    <glyph glyph-name="umacron" unicode="&#x16b;" horiz-adv-x="540" 
d="M342 0l-9 65q-15 -32 -46.5 -53t-85.5 -21q-36 0 -63 12t-44 33t-25.5 49.5t-8.5 60.5v350h153v-334q0 -27 10 -46.5t43 -19.5t46 27.5t13 65.5v307h153v-496h-136zM122 608v80h293v-80h-293z" />
    <glyph glyph-name="Ubreve" unicode="&#x16c;" horiz-adv-x="650" 
d="M582 241q0 -60 -18 -107t-51.5 -79.5t-81 -49t-106.5 -16.5q-122 0 -189.5 65.5t-67.5 186.5v426h162v-416q0 -30 4 -56t15 -45t29 -30t47 -11q27 0 45 11t29.5 30t16 45t4.5 56v416h162v-426v0zM452 854q0 -19 -6 -40.5t-20.5 -40t-38.5 -31t-60 -12.5t-60 12.5
t-38.5 31t-20.5 40t-6 40.5h79q3 -28 16 -39t30 -11t30 11t16 39h79v0z" />
    <glyph glyph-name="ubreve" unicode="&#x16d;" horiz-adv-x="540" 
d="M342 0l-9 65q-15 -32 -46.5 -53t-85.5 -21q-36 0 -63 12t-44 33t-25.5 49.5t-8.5 60.5v350h153v-334q0 -27 10 -46.5t43 -19.5t46 27.5t13 65.5v307h153v-496h-136zM395 710q0 -19 -6 -40.5t-20.5 -40t-38.5 -31t-60 -12.5t-60 12.5t-38.5 31t-20.5 40t-6 40.5h79
q3 -28 16 -39t30 -11t30 11t16 39h79v0z" />
    <glyph glyph-name="Uring" unicode="&#x16e;" horiz-adv-x="650" 
d="M582 241q0 -60 -18 -107t-51.5 -79.5t-81 -49t-106.5 -16.5q-122 0 -189.5 65.5t-67.5 186.5v426h162v-416q0 -30 4 -56t15 -45t29 -30t47 -11q27 0 45 11t29.5 30t16 45t4.5 56v416h162v-426v0zM365 792q0 16 -11 27t-27 11q-15 0 -26.5 -11.5t-11.5 -26.5q0 -16 11 -27
t27 -11t27 11t11 27zM424 792q0 -41 -29 -66t-68 -25q-41 0 -69 25t-28 66t29 66t68 25q40 0 68.5 -25t28.5 -66z" />
    <glyph glyph-name="uring" unicode="&#x16f;" horiz-adv-x="540" 
d="M342 0l-9 65q-15 -32 -46.5 -53t-85.5 -21q-36 0 -63 12t-44 33t-25.5 49.5t-8.5 60.5v350h153v-334q0 -27 10 -46.5t43 -19.5t46 27.5t13 65.5v307h153v-496h-136zM304 648q0 16 -11 27t-27 11q-15 0 -26.5 -11.5t-11.5 -26.5q0 -16 11 -27t27 -11t27 11t11 27zM363 648
q0 -41 -29 -66t-68 -25q-41 0 -69 25t-28 66t29 66t68 25q40 0 68.5 -25t28.5 -66z" />
    <glyph glyph-name="Uhungarumlaut" unicode="&#x170;" horiz-adv-x="650" 
d="M582 241q0 -60 -18 -107t-51.5 -79.5t-81 -49t-106.5 -16.5q-122 0 -189.5 65.5t-67.5 186.5v426h162v-416q0 -30 4 -56t15 -45t29 -30t47 -11q27 0 45 11t29.5 30t16 45t4.5 56v416h162v-426v0zM273 724h-100l73 136h132zM465 724h-100l73 136h132z" />
    <glyph glyph-name="uhungarumlaut" unicode="&#x171;" horiz-adv-x="540" 
d="M342 0l-9 65q-15 -32 -46.5 -53t-85.5 -21q-36 0 -63 12t-44 33t-25.5 49.5t-8.5 60.5v350h153v-334q0 -27 10 -46.5t43 -19.5t46 27.5t13 65.5v307h153v-496h-136zM223 580h-100l73 136h132zM415 580h-100l73 136h132z" />
    <glyph glyph-name="Uogonek" unicode="&#x172;" horiz-adv-x="650" 
d="M433 -182q-19 -8 -40.5 -12t-53.5 -4q-50 0 -73 23.5t-23 56.5q0 24 9 42t24.5 32t35.5 25q8 4 17 8h-4q-122 0 -189.5 65.5t-67.5 186.5v426h162v-416q0 -30 4 -56t15 -45t29 -30t47 -11q27 0 45 11t29.5 30t16 45t4.5 56v416h162v-426q0 -60 -18 -107t-51.5 -79.5
t-81.5 -49.5q-18 -6 -38 -9q-32 -24 -50 -42q-19 -21 -19 -51q0 -23 13.5 -37t39.5 -14q14 0 24.5 4.5t18.5 6.5z" />
    <glyph glyph-name="uogonek" unicode="&#x173;" horiz-adv-x="540" 
d="M456 -182q-19 -8 -40.5 -12t-53.5 -4q-50 0 -73 23.5t-23 56.5q0 24 9 42t24.5 32t35.5 24.5t42 19.5h-35l-9 65q-15 -32 -46.5 -53t-85.5 -21q-36 0 -63 12t-44 33t-25.5 49.5t-8.5 60.5v350h153v-334q0 -27 10 -46.5t43 -19.5t46 27.5t13 65.5v307h153v-496h-55
q-37 -26 -56.5 -46.5t-19.5 -50.5q0 -23 13.5 -37t39.5 -14q14 0 24.5 4.5t18.5 6.5z" />
    <glyph glyph-name="Wcircumflex" unicode="&#x174;" horiz-adv-x="814" 
d="M668 0h-171l-93 513l-87 -513h-171l-130 667h167l64 -495l83 495h160l86 -495l61 495h161zM455 724l-51 86l-51 -86h-107l94 136h132l94 -136h-111z" />
    <glyph glyph-name="wcircumflex" unicode="&#x175;" horiz-adv-x="653" 
d="M531 0h-147l-58 356l-57 -356h-147l-112 496h151l46 -350l56 350h133l57 -350l45 350h145zM380 580l-51 86l-51 -86h-107l94 136h132l94 -136h-111z" />
    <glyph glyph-name="Ycircumflex" unicode="&#x176;" horiz-adv-x="540" 
d="M351 246v-246h-162v246l-191 421h168l109 -293l105 293h162zM324 724l-51 86l-51 -86h-107l94 136h132l94 -136h-111z" />
    <glyph glyph-name="ycircumflex" unicode="&#x177;" horiz-adv-x="474" 
d="M305 -50q-10 -33 -24 -60.5t-35.5 -47t-51 -30t-70.5 -10.5q-24 0 -50 2.5t-44 7.5l27 103q10 -3 26.5 -5.5t26.5 -2.5q26 0 39.5 19t23.5 53l6 21l-169 496h161l80 -322l62 322h155zM296 580l-51 86l-51 -86h-107l94 136h132l94 -136h-111z" />
    <glyph glyph-name="Zacute" unicode="&#x179;" horiz-adv-x="506" 
d="M30 0v96l254 454h-242v117h428v-96l-254 -453h260v-118h-446zM289 724h-100l73 136h132z" />
    <glyph glyph-name="zacute" unicode="&#x17a;" horiz-adv-x="420" 
d="M27 0v93l189 299h-177v104h348v-93l-189 -298h195v-105h-366zM259 580h-100l73 136h132z" />
    <glyph glyph-name="Zdotaccent" unicode="&#x17b;" horiz-adv-x="506" 
d="M30 0v96l254 454h-242v117h428v-96l-254 -453h260v-118h-446zM348 792q0 -34 -26 -57.5t-64 -23.5t-64 23.5t-26 57.5t26 57.5t64 23.5t64 -23.5t26 -57.5z" />
    <glyph glyph-name="zdotaccent" unicode="&#x17c;" horiz-adv-x="420" 
d="M27 0v93l189 299h-177v104h348v-93l-189 -298h195v-105h-366zM306 648q0 -34 -26 -57.5t-64 -23.5t-64 23.5t-26 57.5t26 57.5t64 23.5t64 -23.5t26 -57.5z" />
    <glyph glyph-name="Scommaaccent" unicode="&#x218;" horiz-adv-x="526" 
d="M478 198q0 -56 -21.5 -95.5t-57.5 -64.5t-82 -37t-95 -12q-44 0 -88 3t-86 16l2 118q29 -14 64.5 -20.5t67.5 -6.5q23 0 46 3.5t41 13.5t29.5 28t11.5 46q0 35 -19.5 53.5t-48.5 32t-63 25t-63 32t-48.5 54t-19.5 90.5q0 51 20.5 88.5t54 62.5t77 37.5t89.5 12.5
q43 0 84.5 -5t83.5 -16l-29 -114q-28 12 -58 17.5t-61 5.5q-20 0 -38 -3.5t-31.5 -12t-21.5 -23.5t-8 -38q0 -32 20 -50t49.5 -31.5t64.5 -27t64.5 -35t49.5 -56.5t20 -91zM255 -224l-96 23l60 169l112 -29z" />
    <glyph glyph-name="scommaaccent" unicode="&#x219;" horiz-adv-x="418" 
d="M386 160q0 -47 -17 -79.5t-45.5 -52.5t-66 -28.5t-79.5 -8.5q-37 0 -74 4.5t-72 17.5l28 100q27 -14 57.5 -18.5t60.5 -4.5q55 0 55 58q0 21 -14 33.5t-35 22t-45 19t-45 25t-35 40t-14 64.5q0 44 16.5 73.5t44.5 47t63.5 25t73.5 7.5q35 0 66.5 -4t65.5 -15l-29 -97
q-23 11 -50 14.5t-52 3.5q-22 0 -35.5 -13t-13.5 -35q0 -19 14 -31t35.5 -21.5l46 -19.5t46 -26t35.5 -40t14 -61zM202 -214l-96 23l60 169l112 -29z" />
    <glyph glyph-name="uni021A" unicode="&#x21a;" horiz-adv-x="474" 
d="M318 544v-544h-162v544h-144v123h450v-123h-144zM236 -214l-96 23l60 169l112 -29z" />
    <glyph glyph-name="uni021B" unicode="&#x21b;" horiz-adv-x="364" 
d="M345 2q-20 -8 -52 -9.5t-67 -1.5q-64 0 -100.5 34.5t-36.5 103.5v263h-70v104h70v112l154 33v-145h95v-104h-95v-222q0 -42 12 -58t38 -16h22t21 5l9 -99v0zM178 -214l-96 23l60 169l112 -29z" />
    <glyph glyph-name="dotlessj" unicode="&#x237;" 
d="M248 -33q0 -83 -43 -124t-122 -41q-24 0 -46.5 2t-40.5 8l27 105q6 -2 13.5 -4t16.5 -2q26 0 34 23.5t8 59.5v400h-66v102h219v-529v0z" />
    <glyph glyph-name="caron" unicode="&#x2c7;" 
d="M225 580h-132l-94 136h111l51 -86l51 86h107z" />
    <glyph glyph-name="uni02C9" unicode="&#x2c9;" 
d="M13 608v80h293v-80h-293z" />
    <glyph glyph-name="breve" unicode="&#x2d8;" 
d="M284 710q0 -19 -6 -40.5t-20.5 -40t-38.5 -31t-60 -12.5t-60 12.5t-38.5 31t-20.5 40t-6 40.5h79q3 -28 16 -39t30 -11t30 11t16 39h79v0z" />
    <glyph glyph-name="dotaccent" unicode="&#x2d9;" 
d="M256 648q0 -34 -26 -57.5t-64 -23.5t-64 23.5t-26 57.5t26 57.5t64 23.5t64 -23.5t26 -57.5z" />
    <glyph glyph-name="ring" unicode="&#x2da;" 
d="M197 648q0 16 -11 27t-27 11q-15 0 -26.5 -11.5t-11.5 -26.5q0 -16 11 -27t27 -11t27 11t11 27zM256 648q0 -41 -29 -66t-68 -25q-41 0 -69 25t-28 66t29 66t68 25q40 0 68.5 -25t28.5 -66z" />
    <glyph glyph-name="ogonek" unicode="&#x2db;" 
d="M254 -182q-19 -8 -40.5 -12t-53.5 -4q-50 0 -73 23.5t-23 56.5q0 24 9 42t24.5 32t35.5 24.5t42 19.5h46q-37 -26 -56.5 -46.5t-19.5 -50.5q0 -23 13.5 -37t39.5 -14q14 0 24.5 4.5t18.5 6.5l13 -45v0z" />
    <glyph glyph-name="hungarumlaut" unicode="&#x2dd;" 
d="M61 580h-100l73 136h132zM253 580h-100l73 136h132z" />
    <glyph glyph-name="uni0394" unicode="&#x394;" horiz-adv-x="846" 
d="M420 577l-166 -457h336zM62 0l291 763h134l297 -763h-722z" />
    <glyph glyph-name="uni03A9" unicode="&#x3a9;" horiz-adv-x="846" 
d="M443 0v222q45 1 76.5 14.5t51 36.5t28.5 54t9 66q0 37 -13.5 67.5t-38.5 52t-59 33t-74 11.5q-41 0 -75 -11.5t-58.5 -33.5t-38 -52.5t-13.5 -67.5q0 -35 9 -65.5t28.5 -53.5t51 -36.5t76.5 -14.5v-222h-309v110h204v37q-47 12 -83 36t-60 56.5t-36.5 71.5t-12.5 81
q0 65 25.5 116t69 86.5t101 54t121.5 18.5t121.5 -18t101 -53t69 -86t25.5 -117q0 -42 -12.5 -81t-37 -71.5t-60.5 -57t-82 -36.5v-37h204v-110h-309z" />
    <glyph glyph-name="uni03BC" unicode="&#x3bc;" horiz-adv-x="564" 
d="M355 0l-9 65q-13 -33 -30.5 -53.5t-46.5 -20.5q-32 0 -42 28v-217h-153v694h153v-334q0 -27 9.5 -46.5t42.5 -19.5t46 27.5t13 65.5v307h153v-496h-136z" />
    <glyph glyph-name="pi" unicode="&#x3c0;" horiz-adv-x="600" 
d="M524 17q-28 -15 -48 -21.5t-43 -6.5q-31 0 -50.5 10t-31 26t-16 37t-4.5 44v275h-106v-382h-119v382h-64v115h482v-115h-74v-254v-7t0.5 -9.5t2 -8t4.5 -3.5q5 0 15.5 4t21 8.5t19.5 9l11 5.5v-109v0z" />
    <glyph glyph-name="fraction" unicode="&#x2044;" horiz-adv-x="282" 
d="M41 -24h-102l302 704h102z" />
    <glyph glyph-name="afii61289" unicode="&#x2113;" horiz-adv-x="500" 
d="M446 50q-74 -64 -162 -64q-74 0 -114.5 39t-40.5 103v59l-56 -52h-2l-43 67l100 85v243q0 42 12.5 77t35 60.5t53 39.5t67.5 14q64 0 103 -39.5t39 -105.5q0 -76 -46.5 -151t-140.5 -158v-119q0 -21 5.5 -34.5t14.5 -22t20.5 -12t23.5 -3.5q39 0 88 38h2l41 -64v0z
M338 569q0 30 -11.5 50t-30.5 20q-18 0 -31.5 -22t-13.5 -64v-182q45 49 66 100t21 98z" />
    <glyph glyph-name="Omega" unicode="&#x2126;" horiz-adv-x="846" 
d="M443 0v222q45 1 76.5 14.5t51 36.5t28.5 54t9 66q0 37 -13.5 67.5t-38.5 52t-59 33t-74 11.5q-41 0 -75 -11.5t-58.5 -33.5t-38 -52.5t-13.5 -67.5q0 -35 9 -65.5t28.5 -53.5t51 -36.5t76.5 -14.5v-222h-309v110h204v37q-47 12 -83 36t-60 56.5t-36.5 71.5t-12.5 81
q0 65 25.5 116t69 86.5t101 54t121.5 18.5t121.5 -18t101 -53t69 -86t25.5 -117q0 -42 -12.5 -81t-37 -71.5t-60.5 -57t-82 -36.5v-37h204v-110h-309z" />
    <glyph glyph-name="estimated" unicode="&#x212e;" horiz-adv-x="500" 
d="M157 259v-181q59 -59 145 -59q63 0 109 28.5t84 91.5l35 -21q-23 -36 -46.5 -61.5t-51 -42t-59.5 -24t-71 -7.5q-59 0 -106.5 21.5t-81.5 59t-52 87.5t-18 108t18 108.5t52 87.5t81.5 58.5t106.5 21.5q58 0 105.5 -20.5t81.5 -57t53 -87t19 -111.5h-404zM448 295v145
q-63 60 -147 60t-144 -60v-145h291z" />
    <glyph glyph-name="partialdiff" unicode="&#x2202;" horiz-adv-x="564" 
d="M380 277q-21 17 -49 25.5t-54 8.5q-42 0 -66.5 -30t-24.5 -78q0 -45 23 -74.5t60 -29.5q28 0 48 17t32.5 43.5t20 57.5t10.5 60zM514 334q0 -28 -4 -64.5t-13.5 -75t-27 -75.5t-45 -66t-65.5 -46.5t-90 -17.5q-53 0 -93.5 19t-68.5 50.5t-42.5 71.5t-14.5 82q0 43 15 81
t42.5 66.5t67.5 45t90 16.5q29 0 57 -9t54 -20q-3 25 -11 53t-21.5 52t-34 39.5t-48.5 15.5q-11 0 -22 -1.5t-24.5 -7t-29.5 -17t-35 -30.5l-81 92q28 22 51.5 37t46 24.5t44.5 13.5t46 4q51 0 89.5 -16t67 -42.5t48 -60.5t31 -71t16.5 -74t5 -69z" />
    <glyph glyph-name="Delta" unicode="&#x2206;" horiz-adv-x="846" 
d="M420 577l-166 -457h336zM62 0l291 763h134l297 -763h-722z" />
    <glyph glyph-name="product" unicode="&#x220f;" horiz-adv-x="846" 
d="M583 -96v743h-320v-743h-132v859h584v-859h-132z" />
    <glyph glyph-name="summation" unicode="&#x2211;" horiz-adv-x="846" 
d="M107 -96v107l271 332l-253 313v107h590v-120h-412l250 -300l-268 -319h442v-120h-620z" />
    <glyph glyph-name="minus" unicode="&#x2212;" horiz-adv-x="600" 
d="M45 190v116h510v-116h-510z" />
    <glyph glyph-name="uni2215" unicode="&#x2215;" horiz-adv-x="282" 
d="M41 -24h-102l302 704h102z" />
    <glyph glyph-name="uni2219" unicode="&#x2219;" horiz-adv-x="282" 
d="M240 311q0 -38 -28.5 -65t-70.5 -27t-70.5 27t-28.5 65q0 19 7.5 35.5t21 29.5t31.5 20.5t39 7.5t39 -7.5t31.5 -20.5t21 -29.5t7.5 -35.5z" />
    <glyph glyph-name="radical" unicode="&#x221a;" horiz-adv-x="600" 
d="M353 -96h-110l-138 279l-42 -21l-51 108l158 74l112 -261l143 680h125z" />
    <glyph glyph-name="infinity" unicode="&#x221e;" horiz-adv-x="846" 
d="M356 250l-19.5 25t-23.5 23.5t-27.5 17.5t-30.5 7q-32 0 -53 -22t-21 -53t20.5 -52.5t52.5 -21.5q16 0 30.5 7.5t27 19t23.5 24.5zM667 248q0 30 -21.5 52t-51.5 22q-14 0 -28.5 -8t-28 -19.5t-25 -25l-20.5 -23.5q9 -12 20 -25t23 -24t26.5 -18t31.5 -7q32 0 53 22
t21 54zM779 248q0 -38 -14 -71.5t-39 -58.5t-59 -39t-74 -14q-31 0 -56 8.5t-46 23t-38 32.5t-32 38q-15 -19 -31.5 -37t-36.5 -32t-44 -22.5t-54 -8.5q-40 0 -74 13.5t-59.5 38t-40 57.5t-14.5 72t14 72.5t39.5 57.5t59.5 38t75 14q29 0 54 -9t46 -23t39 -32.5t33 -37.5
q16 21 33 39t36.5 32t42.5 22t53 8q40 0 74.5 -13.5t59.5 -37.5t39 -57t14 -73z" />
    <glyph glyph-name="integral" unicode="&#x222b;" horiz-adv-x="564" 
d="M472 626q-17 7 -28.5 11t-19.5 6.5t-13 3t-10 0.5q-19 0 -29 -8.5t-14 -20.5t-4 -25v-19v-484q0 -29 -6 -61.5t-24 -60.5t-51 -46t-87 -18q-17 0 -43 3t-51 14v120q17 -7 28.5 -11t19.5 -6.5t13 -3t10 -0.5q19 0 29 8.5t14 20.5t4 24v19v484q0 29 6.5 62t25 60.5t51.5 46
t87 18.5q17 0 43 -4t49 -15v-118v0z" />
    <glyph glyph-name="approxequal" unicode="&#x2248;" horiz-adv-x="600" 
d="M569 228q-3 -30 -12 -57.5t-26 -49.5t-43 -35t-62 -13q-34 0 -66.5 8.5t-64 18.5t-62 18.5t-59.5 8.5q-17 0 -29.5 -13.5t-17.5 -44.5h-97q4 29 13.5 57t26.5 50t42.5 35.5t63.5 13.5q34 0 66 -8.5t63.5 -18l61.5 -18t60 -8.5q19 0 30.5 12t19.5 44h92v0zM569 427
q-3 -30 -12 -57.5t-26 -49.5t-43 -35t-62 -13q-34 0 -66.5 8.5t-64 18.5t-62 18.5t-59.5 8.5q-17 0 -29.5 -13.5t-17.5 -44.5h-97q4 29 13.5 57t26.5 50t42.5 35.5t63.5 13.5q34 0 66 -8.5t63.5 -18l61.5 -18t60 -8.5q19 0 30.5 12t19.5 44h92v0z" />
    <glyph glyph-name="notequal" unicode="&#x2260;" horiz-adv-x="600" 
d="M269 82l-65 -129l-86 45l43 84h-116v116h175l50 100h-225v116h284l64 125l85 -45l-41 -80h118v-116h-176l-51 -100h227v-116h-286z" />
    <glyph glyph-name="lessequal" unicode="&#x2264;" horiz-adv-x="600" 
d="M45 0v116h510v-116h-510zM45 264v107l510 125v-121l-322 -58l322 -56v-121z" />
    <glyph glyph-name="greaterequal" unicode="&#x2265;" horiz-adv-x="600" 
d="M45 0v116h510v-116h-510zM45 140v121l322 56l-322 58v121l510 -125v-107z" />
    <glyph glyph-name="lozenge" unicode="&#x25ca;" horiz-adv-x="600" 
d="M300 609l-111 -218l111 -234l111 234zM355 0h-110l-203 392l203 371h110l203 -371z" />
    <glyph glyph-name="grave.cap" unicode="&#xe300;" 
d="M140 724l-105 136h132l73 -136h-100z" />
    <glyph glyph-name="acute.cap" unicode="&#xe301;" 
d="M203 724h-100l73 136h132z" />
    <glyph glyph-name="circumflex.cap" unicode="&#xe302;" 
d="M208 724l-51 86l-51 -86h-107l94 136h132l94 -136h-111z" />
    <glyph glyph-name="caron.cap" unicode="&#xe303;" 
d="M225 724h-132l-94 136h111l51 -86l51 86h107z" />
    <glyph glyph-name="tilde.cap" unicode="&#xe304;" 
d="M316 858q0 -21 -5.5 -44t-17 -42.5t-29 -32.5t-42.5 -13q-18 0 -34 6.5t-31 14.5t-28.5 14.5t-25.5 6.5q-14 0 -22 -15t-8 -27h-71q1 20 6.5 43t17 43t29 33t41.5 13q18 0 35 -6.5t32 -14.5t28.5 -14.5t25.5 -6.5q15 0 21 15t7 27h71v0z" />
    <glyph glyph-name="dieresis.cap" unicode="&#xe305;" 
d="M132 792q0 -30 -23.5 -52.5t-56.5 -22.5t-56.5 22.5t-23.5 52.5t23.5 52.5t56.5 22.5t56.5 -22.5t23.5 -52.5zM346 792q0 -30 -23.5 -52.5t-56.5 -22.5t-56.5 22.5t-23.5 52.5t23.5 52.5t56.5 22.5t56.5 -22.5t23.5 -52.5z" />
    <glyph glyph-name="macron.cap" unicode="&#xe306;" 
d="M13 752v80h293v-80h-293z" />
    <glyph glyph-name="breve.cap" unicode="&#xe307;" 
d="M284 854q0 -19 -6 -40.5t-20.5 -40t-38.5 -31t-60 -12.5t-60 12.5t-38.5 31t-20.5 40t-6 40.5h79q3 -28 16 -39t30 -11t30 11t16 39h79v0z" />
    <glyph glyph-name="ring.cap" unicode="&#xe308;" 
d="M197 792q0 16 -11 27t-27 11q-15 0 -26.5 -11.5t-11.5 -26.5q0 -16 11 -27t27 -11t27 11t11 27zM256 792q0 -41 -29 -66t-68 -25q-41 0 -69 25t-28 66t29 66t68 25q40 0 68.5 -25t28.5 -66z" />
    <glyph glyph-name="hungarumlaut.cap" unicode="&#xe309;" 
d="M61 724h-100l73 136h132zM253 724h-100l73 136h132z" />
    <glyph glyph-name="dotaccent.cap" unicode="&#xe30a;" 
d="M256 792q0 -34 -26 -57.5t-64 -23.5t-64 23.5t-26 57.5t26 57.5t64 23.5t64 -23.5t26 -57.5z" />
    <glyph glyph-name="caron.alt" unicode="&#xe30b;" 
d="M199 554l-96 23l60 169l112 -29z" />
    <glyph glyph-name="commaaccent" unicode="&#xe30c;" 
d="M173 -205l-96 23l60 169l112 -29z" />
    <glyph glyph-name="commaaccent.alt" unicode="&#xe30d;" 
d="M179 739l96 -23l-60 -169l-112 29z" />
    <glyph glyph-name="uniF8FF" unicode="&#xf8ff;" horiz-adv-x="512" 
d="M222 117v67h56v-67h-56zM225 234l-2 17q0 56 13 81q7 13 18 27.5t28 31.5q16 15 26 26.5t15 21t7 18t2 17.5q0 36 -22.5 60.5t-53.5 24.5t-53.5 -22t-28.5 -73l-50 8q7 72 44 104.5t91 32.5t89 -35.5t35 -95.5q0 -32 -12.5 -58.5t-50.5 -61.5q-37 -33 -43 -52
q-6 -20 -6 -72h-46zM462 50v617h-412v-617h412zM512 718v-718h-512v718h512z" />
    </font>
</defs>
</svg>
