<?xml version="1.0" standalone="no"?>
<!DOCTYPE svg PUBLIC "-//W3C//DTD SVG 1.1//EN" "http://www.w3.org/Graphics/SVG/1.1/DTD/svg11.dtd" >
<svg>
<metadata>
Created by FontForge 20090622 at Mon Feb 15 17:24:25 2016
 By deploy user
Copyright &#194;&#169; 2009 Linotype GmbH, www.linotype.com. All rights reserved. This font software may not be reproduced, modified, disclosed or transferred without the express written approval of Linotype GmbH. Vialog is a trademark of Linotype GmbH and may be registered in certain jurisdictions. This typeface is original artwork of Werner Schneider and Helmut Ness. The design may be protected in certain jurisdictions.
</metadata>
<defs>
<font id="ScoutVialog-Light" horiz-adv-x="241" >
  <font-face 
    font-family="Scout Vialog Light"
    font-weight="300"
    font-stretch="normal"
    units-per-em="1000"
    panose-1="2 11 3 4 2 0 0 2 0 4"
    ascent="712"
    descent="-288"
    x-height="486"
    cap-height="667"
    bbox="-58 -227 1079 886"
    underline-thickness="50"
    underline-position="-50"
    unicode-range="U+000D-U+FB02"
  />
<missing-glyph horiz-adv-x="512" 
d="M222 117v67h56v-67h-56zM225 234l-2 17q0 56 13 81q7 13 18 27.5t28 31.5q16 15 26 26.5t15 21t7 18t2 17.5q0 36 -22.5 60.5t-53.5 24.5t-53.5 -22t-28.5 -73l-50 8q7 72 44 104.5t91 32.5t89 -35.5t35 -95.5q0 -32 -12.5 -58.5t-50.5 -61.5q-37 -33 -43 -52
q-6 -20 -6 -72h-46zM462 50v617h-412v-617h412zM512 718v-718h-512v718h512z" />
    <glyph glyph-name="IJ" unicode="IJ" horiz-adv-x="614" 
d="M86 0v667h80v-667h-80zM528 45q0 -40 -8 -74t-27.5 -59t-52 -39t-81.5 -14q-11 0 -24.5 0.5t-27.5 2t-26.5 3.5t-20.5 5l15 61q12 -5 31.5 -6t46.5 -1q30 0 48.5 10.5t29 26.5t14 34t3.5 33v574h-153v65h233v-622z" />
    <glyph glyph-name="ij" unicode="ij" horiz-adv-x="482" 
d="M92 0v427h-66v59h141v-486h-75zM175 648q0 -20 -15 -35t-36 -15t-36 15t-15 35t15 35t36 15t36 -15t15 -35zM408 -33q0 -41 -5 -72t-18.5 -51.5t-38 -31t-63.5 -10.5q-9 0 -19.5 3t-19.5 7l15 55q6 -2 14.5 -4t17.5 -2q26 0 34 19t8 55v492h-66v59h141v-519zM416 648
q0 -20 -15 -35t-36 -15t-36 15t-15 35t15 35t36 15t36 -15t15 -35z" />
    <glyph glyph-name="napostrophe" unicode="&#x22;n" horiz-adv-x="492" 
d="M343 0v340q0 42 -23 70t-68 28q-25 0 -44 -11t-32 -29t-20 -40.5t-7 -44.5v-313h-75v486h66l9 -67q8 18 22 32t31.5 23.5t37 15t38.5 5.5q35 0 61.5 -12t44 -33.5t26 -50t8.5 -61.5v-338h-75zM75 560l-46 12l57 160l64 -16z" />
    <glyph glyph-name="fi" unicode="fi" horiz-adv-x="514" 
d="M261 651q-11 2 -21 3.5t-28 0.5q-26 -1 -34 -22t-8 -47v-100h82v-59h-82v-427h-75v427h-70v59h70v89q0 76 29.5 106.5t101.5 30.5q11 0 25.5 -3l24.5 -5zM365 0v427h-66v59h141v-486h-75zM448 648q0 -20 -15 -35t-36 -15t-36 15t-15 35t15 35t36 15t36 -15t15 -35z" />
    <glyph glyph-name="fl" unicode="fl" horiz-adv-x="514" 
d="M261 651q-11 2 -21 3.5t-28 0.5q-26 -1 -34 -22t-8 -47v-100h82v-59h-82v-427h-75v427h-70v59h70v89q0 76 29.5 106.5t101.5 30.5q11 0 25.5 -3l24.5 -5zM501 5q-23 -14 -50 -14q-36 0 -57 9.5t-32 27.5t-14 43t-3 57v584h75v-586q0 -11 0.5 -24.5t4 -25t11.5 -19.5
t23 -8q12 0 29 5z" />
    <glyph glyph-name=".notdef" horiz-adv-x="512" 
d="M222 117v67h56v-67h-56zM225 234l-2 17q0 56 13 81q7 13 18 27.5t28 31.5q16 15 26 26.5t15 21t7 18t2 17.5q0 36 -22.5 60.5t-53.5 24.5t-53.5 -22t-28.5 -73l-50 8q7 72 44 104.5t91 32.5t89 -35.5t35 -95.5q0 -32 -12.5 -58.5t-50.5 -61.5q-37 -33 -43 -52
q-6 -20 -6 -72h-46zM462 50v617h-412v-617h412zM512 718v-718h-512v718h512z" />
    <glyph glyph-name="nonmarkingreturn" unicode="&#xd;" horiz-adv-x="0" 
 />
    <glyph glyph-name="space" unicode=" " horiz-adv-x="252" 
 />
    <glyph glyph-name="exclam" unicode="!" horiz-adv-x="268" 
d="M193 48q0 -25 -17 -41.5t-42 -16.5t-42 16.5t-17 41.5t17 41.5t42 16.5t42 -16.5t17 -41.5zM96 181v486h75v-486h-75z" />
    <glyph glyph-name="quotedbl" unicode="&#x22;" horiz-adv-x="401" 
d="M90 459v208h73v-208h-73zM239 459v208h73v-208h-73z" />
    <glyph glyph-name="numbersign" unicode="#" horiz-adv-x="504" 
d="M210 422l-32 -155h115l32 155h-115zM386 422l-32 -155h78v-62h-91l-42 -205h-61l42 205h-115l-42 -205h-61l42 205h-75v62h88l32 155h-77v62h89l38 183h61l-38 -183h115l38 183h61l-38 -183h77v-62h-89z" />
    <glyph glyph-name="dollar" unicode="$" horiz-adv-x="504" 
d="M408 229q0 -66 -32 -102.5t-92 -49.5v-77h-69v70q-14 0 -31 2t-34 4.5t-31.5 6t-22.5 6.5l15 61q7 -4 19.5 -7.5t28 -6.5t32 -5t30.5 -2q46 0 77.5 21.5t31.5 67.5q0 26 -17.5 42t-43 28.5t-56 23.5t-56 27t-43 40t-17.5 62q0 61 35 95t89 45v75h69v-70q35 -1 59.5 -4
t32.5 -6l-15 -63q-17 8 -41.5 11t-48.5 3q-45 0 -74.5 -19.5t-29.5 -57.5q0 -25 17.5 -40.5t43.5 -27.5t56.5 -23t56.5 -27.5t43.5 -40.5t17.5 -62z" />
    <glyph glyph-name="percent" unicode="%" horiz-adv-x="882" 
d="M263 474q0 13 -1.5 37.5t-9 47.5t-22 40.5t-39.5 17.5q-26 0 -41 -17t-22.5 -40.5t-9.5 -47.5t-2 -38q0 -15 1.5 -42.5t9 -54t22.5 -46.5t42 -20t41.5 20t21.5 46.5t8 54t1 42.5zM765 202q0 13 -2 37.5t-9 48t-22 41t-40 17.5q-26 0 -41 -17.5t-22.5 -41t-9 -48
t-1.5 -37.5q0 -15 1.5 -42.5t8.5 -54t22 -46.5t42 -20t42 20t21.5 46.5t8 54t1.5 42.5zM325 474q0 -32 -3 -69t-16.5 -69t-40 -53.5t-74.5 -21.5t-75 21.5t-40.5 53.5t-17 69t-3.5 69q0 31 5 65t19.5 62.5t41 47t70.5 18.5q45 0 71.5 -18.5t40.5 -46.5t18 -62.5t4 -65.5z
M323 -24h-65l302 704h65zM827 202q0 -32 -3 -69t-16.5 -69t-40.5 -53.5t-75 -21.5t-75 21.5t-40.5 53.5t-16.5 69t-3 69q0 31 4.5 65t19 62.5t41 47.5t70.5 19q45 0 71.5 -18.5t40.5 -47t18.5 -63t4.5 -65.5z" />
    <glyph glyph-name="ampersand" unicode="&#x26;" horiz-adv-x="631" 
d="M249 307q-20 -12 -39 -25.5t-34 -30.5t-24.5 -36.5t-9.5 -43.5q0 -54 32 -87.5t81 -33.5q21 0 42 6t40 16.5t35.5 24t29.5 28.5zM357 531q0 35 -20 60.5t-58 25.5t-61 -24t-23 -62t21.5 -71t47.5 -59q17 9 34 22.5t30 30.5t21 36.5t8 40.5zM524 -21l-80 95
q-45 -42 -89 -63.5t-102 -21.5q-41 0 -76 12.5t-61 36.5t-41 57.5t-15 75.5q0 30 12.5 57.5t33 51.5t46.5 43.5t54 34.5q-42 34 -66 78.5t-24 95.5q0 32 13.5 59t36 46.5t51.5 30t61 10.5q69 0 113.5 -37t44.5 -112q0 -27 -12 -51.5t-30.5 -47t-41.5 -42.5t-45 -37l150 -173
q20 22 34 45l29 46l56 -48l-37.5 -47.5t-42.5 -43.5l85 -99z" />
    <glyph glyph-name="quotesingle" unicode="'" horiz-adv-x="252" 
d="M90 459v208h73v-208h-73z" />
    <glyph glyph-name="parenleft" unicode="(" horiz-adv-x="295" 
d="M222 -78q-32 48 -61 97t-50.5 100.5t-34 107t-12.5 117.5q0 58 12.5 111t34.5 102.5t50.5 96t60.5 91.5l46 -22q-52 -91 -85 -182.5t-33 -196.5q0 -110 33.5 -208t84.5 -192z" />
    <glyph glyph-name="parenright" unicode=")" horiz-adv-x="295" 
d="M231 344q0 -62 -12.5 -117.5t-34 -107t-50.5 -100.5t-61 -97l-46 22q51 94 84.5 191.5t33.5 208.5q0 105 -33 196.5t-85 182.5l46 22q32 -45 60.5 -91.5t50.5 -96t34.5 -102.5t12.5 -111z" />
    <glyph glyph-name="asterisk" unicode="*" horiz-adv-x="378" 
d="M230 495l73 -108l-56 -35l-58 112l-58 -112l-55 35l73 108l-116 35l21 64l112 -52l-11 125h69l-10 -125l110 52l22 -64z" />
    <glyph glyph-name="plus" unicode="+" horiz-adv-x="600" 
d="M336 210v-210h-72v210h-219v66h219v210h72v-210h219v-66h-219z" />
    <glyph glyph-name="comma" unicode="," horiz-adv-x="252" 
d="M89 -129l-58 17l71 229l80 -23z" />
    <glyph glyph-name="hyphen" unicode="-" horiz-adv-x="318" 
d="M42 253v66h234v-66h-234z" />
    <glyph glyph-name="period" unicode="." horiz-adv-x="252" 
d="M184 52q0 -25 -17 -43t-41 -18t-41 18t-17 43t17 42.5t41 17.5t41 -17.5t17 -42.5z" />
    <glyph glyph-name="slash" unicode="/" horiz-adv-x="252" 
d="M57 0h-64l201 667h64z" />
    <glyph glyph-name="zero" unicode="0" horiz-adv-x="504" 
d="M378 344q0 19 -2 46t-7 56t-13.5 57.5t-22.5 51.5t-34 37t-47 14q-28 0 -48 -14t-34 -36.5t-22.5 -51t-13.5 -58t-6.5 -56.5t-1.5 -46q0 -21 1 -50.5t4.5 -62t11.5 -65t22 -58.5t35 -42t52 -16q29 0 49.5 16.5t34.5 42.5t22.5 58.5t12.5 65.5t5.5 62t1.5 49zM456 344
q0 -53 -7 -115t-28.5 -115.5t-61.5 -89t-107 -35.5q-48 0 -82 16t-56.5 43t-35.5 62.5t-20 75t-8.5 80t-1.5 78.5q0 51 9 108t31.5 104.5t62 79t101.5 31.5q65 0 105 -30.5t62 -78t29.5 -104.5t7.5 -110z" />
    <glyph glyph-name="one" unicode="1" horiz-adv-x="504" 
d="M102 0v63h143v515l-154 -86l-9 73l167 91h77v-593h136v-63h-360z" />
    <glyph glyph-name="two" unicode="2" horiz-adv-x="504" 
d="M62 0v32q0 60 20.5 104.5t52 80.5t67.5 66.5t67.5 62t52 68.5t20.5 86q0 51 -30 78.5t-75 27.5q-39 0 -76.5 -9.5t-64.5 -32.5l-22 61q36 22 75 32t87 10q39 0 73 -8.5t59.5 -27.5t40 -50t14.5 -75q0 -59 -20.5 -104t-51.5 -81t-67 -66.5t-67 -60t-51.5 -61t-20.5 -70.5
h286v-63h-369z" />
    <glyph glyph-name="three" unicode="3" horiz-adv-x="504" 
d="M418 191q0 -51 -17.5 -88.5t-48 -63t-73 -38t-93.5 -12.5q-13 0 -31 0.5t-36 2.5t-35 7t-28 13l6 61q10 -6 26.5 -10.5t35.5 -7t37 -4t32 -1.5q30 0 56 8t45.5 25t31 42t11.5 60q0 33 -13 57.5t-33 40.5t-45 23.5t-50 7.5h-74v61h76q57 0 93.5 34.5t36.5 97.5
q0 26 -10 45t-26.5 31t-36.5 17.5t-41 5.5q-32 0 -66.5 -6.5t-63.5 -18.5l-14 60q38 13 69 19.5t72 6.5t76.5 -7.5t61.5 -26t41 -49.5t15 -77q0 -54 -32.5 -94.5t-98.5 -63.5q37 -4 64 -18.5t45 -35.5t26.5 -48t8.5 -56z" />
    <glyph glyph-name="four" unicode="4" horiz-adv-x="504" 
d="M456 163h-74v-163h-75v163h-267v48l81 219.5l80 225.5h73l-37.5 -109l-41.5 -116l-41.5 -112.5l-37.5 -98.5h191v129h75v-129h74v-57z" />
    <glyph glyph-name="five" unicode="5" horiz-adv-x="504" 
d="M425 208q0 -53 -19.5 -94t-53 -69t-78 -42t-95.5 -14q-35 0 -62 3.5t-50 11.5l6 64q9 -4 22.5 -7t28.5 -5.5t30 -4t27 -1.5q34 0 64 10t52 29t34.5 47.5t12.5 65.5q0 35 -12 62t-32.5 45.5t-48.5 28t-59 9.5q-22 0 -50.5 -3.5t-57.5 -8.5l10 321h300v-63h-230l-8 -194
q22 4 39.5 3.5t34.5 -0.5q36 0 70.5 -11.5t62.5 -35.5t45 -60.5t17 -86.5z" />
    <glyph glyph-name="six" unicode="6" horiz-adv-x="504" 
d="M364 197q0 25 -7.5 49t-21.5 43.5t-35 31.5t-49 12q-29 0 -50.5 -12.5t-35 -32t-20 -43.5t-6.5 -48q0 -26 6.5 -52t20 -47t34.5 -34.5t51 -13.5q29 0 50.5 14t35.5 35.5t20.5 47.5t6.5 50zM445 202q0 -46 -14.5 -85t-40 -67.5t-61.5 -44.5t-78 -16q-52 0 -88.5 17t-59 48
t-33 73t-10.5 92q0 65 20.5 132.5t56 130t83 115t101.5 87.5l59 -55q-39 -24 -75 -57t-66 -72t-52 -82.5t-34 -88.5q21 30 52 47.5t71 17.5t71.5 -16.5t53.5 -43.5t33 -61.5t11 -70.5z" />
    <glyph glyph-name="seven" unicode="7" horiz-adv-x="504" 
d="M432 602l-59.5 -160.5l-60 -167.5l-56.5 -159l-48 -136l-77 34l52 141.5l59.5 156l60 152l53.5 130.5h-286v63h362v-54z" />
    <glyph glyph-name="eight" unicode="8" horiz-adv-x="504" 
d="M367 187q0 26 -7 49.5t-21 41t-35.5 27.5t-51.5 10q-27 0 -48.5 -11t-36.5 -29t-22.5 -41t-7.5 -47q0 -29 6 -54t20 -43.5t35.5 -29t53.5 -10.5q31 0 52.5 10.5t35.5 29.5t20.5 43.5t6.5 53.5zM347 494q0 46 -23 79t-72 33q-23 0 -41 -9t-30.5 -24.5t-19 -36t-6.5 -42.5
q0 -25 5 -47.5t16 -39.5t30 -27t46 -10q25 0 43 11t29.5 29t17 40t5.5 44zM448 183q0 -45 -15.5 -81t-42.5 -61t-62.5 -38.5t-75.5 -13.5q-93 0 -144.5 47.5t-51.5 146.5q0 25 8.5 50.5t25 47t39.5 37.5t53 23q-57 20 -80.5 63.5t-23.5 93.5q0 37 14.5 68.5t38.5 53.5
t55.5 34.5t65.5 12.5q36 0 67 -12t54.5 -33.5t37 -53t13.5 -70.5q0 -24 -5.5 -47t-18 -43t-32.5 -35t-49 -23q33 -3 57.5 -19.5t40.5 -40t23.5 -52t7.5 -55.5z" />
    <glyph glyph-name="nine" unicode="9" horiz-adv-x="504" 
d="M365 457q0 25 -6.5 51.5t-20 48t-35 35.5t-51.5 14t-51.5 -14t-35 -36t-19.5 -48t-6 -51q0 -24 7 -48t20.5 -43t34.5 -31t50 -12q30 0 51 12t35 31t20.5 43t6.5 48zM444 437q0 -65 -20.5 -133t-56 -130.5t-83 -115t-101.5 -86.5l-60 55q36 21 71.5 53t66 71t54 84
t35.5 92q-26 -36 -57.5 -50.5t-64.5 -14.5q-36 0 -66.5 14t-53.5 39.5t-36 61t-13 77.5t13 81t38 68t61 46.5t81 17.5q52 0 89 -18t59.5 -49t33 -73t10.5 -90z" />
    <glyph glyph-name="colon" unicode=":" horiz-adv-x="252" 
d="M184 52q0 -25 -17 -43t-41 -18t-41 18t-17 43t17 42.5t41 17.5t41 -17.5t17 -42.5zM184 435q0 -25 -17 -43t-41 -18t-41 18t-17 43t17 42.5t41 17.5t41 -17.5t17 -42.5z" />
    <glyph glyph-name="semicolon" unicode=";" horiz-adv-x="252" 
d="M89 -129l-58 17l71 229l80 -23zM184 435q0 -25 -17 -43t-41 -18t-41 18t-17 43t17 42.5t41 17.5t41 -17.5t17 -42.5z" />
    <glyph glyph-name="less" unicode="&#x3c;" horiz-adv-x="600" 
d="M44 203v79l512 199v-75l-432 -164l432 -162v-75z" />
    <glyph glyph-name="equal" unicode="=" horiz-adv-x="600" 
d="M45 117v66h510v-66h-510zM45 303v65h510v-65h-510z" />
    <glyph glyph-name="greater" unicode="&#x3e;" horiz-adv-x="600" 
d="M44 5v75l432 161l-432 165v75l512 -199v-79z" />
    <glyph glyph-name="question" unicode="?" horiz-adv-x="384" 
d="M227 48q0 -25 -17 -41.5t-42 -16.5t-42 16.5t-17 41.5t17 41.5t42 16.5t42 -16.5t17 -41.5zM346 531q0 -30 -10.5 -53.5t-26.5 -44t-34.5 -38.5t-34.5 -37t-26.5 -41t-10.5 -50v-86h-75v19q0 13 -0.5 27t-0.5 27v22q0 41 21.5 73.5t47 61t47 56t21.5 58.5q0 45 -25 66.5
t-70 21.5q-40 0 -66 -7.5t-56 -27.5l-17 63q35 18 73.5 27.5t73.5 9.5q36 0 67 -8.5t53.5 -26.5t35.5 -46t13 -66z" />
    <glyph glyph-name="at" unicode="@" horiz-adv-x="911" 
d="M542 346q-29 6 -50 6q-42 0 -72.5 -23t-50.5 -57.5t-30 -74t-10 -71.5q0 -38 17.5 -55t43.5 -17q45 0 72.5 32.5t40.5 89.5zM837 272q0 -53 -13 -102.5t-42 -87t-75 -60t-112 -22.5q-25 0 -42 5.5t-28.5 14.5t-18.5 20t-11 22q-6 -7 -16 -17.5t-26 -20.5t-37.5 -17
t-50.5 -7q-48 0 -78 29.5t-30 90.5q0 50 15.5 101.5t47.5 93.5t80.5 68.5t115.5 26.5q25 0 53 -4.5t52 -12.5l-58 -261q-2 -7 -3 -15t-1 -14q0 -21 14 -35t40 -14q37 0 65.5 18t47.5 48t28.5 69.5t9.5 82.5q0 62 -21.5 112t-60 85t-91.5 53.5t-115 18.5q-75 0 -135.5 -28.5
t-103.5 -77t-66 -113t-23 -137.5q0 -72 19 -130.5t58 -100t97.5 -64.5t138.5 -23q66 0 124.5 14.5t100.5 33.5l16 -66l-44 -16.5t-52.5 -15.5t-67 -11t-86.5 -4q-88 0 -158 25.5t-119 74.5t-75 120t-26 163q0 87 29.5 163.5t83.5 132.5t130.5 88.5t171.5 32.5
q76 0 139.5 -23.5t110 -66.5t72.5 -104t26 -136z" />
    <glyph glyph-name="A" unicode="A" horiz-adv-x="509" 
d="M252 612l-92 -358h187zM414 0l-51 192h-219l-49 -192h-82l183 667h117l183 -667h-82z" />
    <glyph glyph-name="B" unicode="B" horiz-adv-x="523" 
d="M394 193q0 52 -31 85.5t-83 33.5h-114v-244h111q60 0 88.5 32.5t28.5 92.5zM371 492q0 54 -28.5 80.5t-79.5 26.5h-97v-221h83q19 0 40.5 7.5t39.5 22t30 36t12 48.5zM478 199q0 -44 -13.5 -81t-38 -63t-59 -40.5t-77.5 -14.5h-204v667h184q40 0 73.5 -9t57.5 -28.5
t37.5 -50.5t13.5 -74q0 -22 -6 -44t-20 -42.5t-38.5 -37.5t-61.5 -29q40 -4 68.5 -18t47 -35t27.5 -47t9 -53z" />
    <glyph glyph-name="C" unicode="C" horiz-adv-x="495" 
d="M446 597q-45 14 -87 14q-60 0 -102.5 -21t-69 -57.5t-39 -85t-12.5 -103.5q0 -60 9 -112.5t33.5 -91.5t68.5 -61.5t114 -22.5q45 0 87 15v-70q-23 -7 -49.5 -9.5t-49.5 -2.5q-84 0 -141 24.5t-91.5 70.5t-49.5 111.5t-15 148.5q0 72 21.5 133t61.5 105.5t96.5 70
t127.5 25.5q24 0 52 -3t52 -11z" />
    <glyph glyph-name="D" unicode="D" horiz-adv-x="582" 
d="M446 344q0 49 -9.5 95t-33 81.5t-61.5 56.5t-95 21h-81v-529h93q57 0 93.5 26.5t57 67t28.5 89t8 92.5zM530 344q0 -72 -14.5 -135t-46.5 -109.5t-83.5 -73t-126.5 -26.5h-173v667h184q72 0 121.5 -24.5t80 -68t44.5 -102.5t14 -128z" />
    <glyph glyph-name="E" unicode="E" horiz-adv-x="453" 
d="M86 0v667h310v-68h-229v-221h211v-67h-211v-242h241v-69h-322z" />
    <glyph glyph-name="F" unicode="F" horiz-adv-x="432" 
d="M167 598v-232h211v-68h-211v-298h-81v667h310v-69h-229z" />
    <glyph glyph-name="G" unicode="G" horiz-adv-x="572" 
d="M511 22q-36 -18 -77 -25.5t-83 -7.5q-80 0 -136.5 26.5t-92.5 73.5t-53 112t-17 143q0 73 22 134t63 105.5t99 69.5t129 25q34 0 68.5 -4t66.5 -16l-15 -68q-29 11 -59.5 16t-60.5 5q-60 0 -103 -21t-71 -57t-41.5 -85t-13.5 -104q0 -57 11 -109.5t37 -93t70 -64.5
t109 -24q17 0 34.5 3.5t37.5 13.5v225h-103v65h179v-338z" />
    <glyph glyph-name="H" unicode="H" horiz-adv-x="586" 
d="M420 0v310h-254v-310h-80v667h80v-288h254v288h80v-667h-80z" />
    <glyph glyph-name="I" unicode="I" horiz-adv-x="252" 
d="M86 0v667h80v-667h-80z" />
    <glyph glyph-name="J" unicode="J" horiz-adv-x="362" 
d="M276 45q0 -40 -8 -74t-27.5 -59t-52 -39t-81.5 -14q-11 0 -24.5 0.5t-27.5 2t-26.5 3.5t-20.5 5l15 61q12 -5 31.5 -6t46.5 -1q30 0 48.5 10.5t29 26.5t14 34t3.5 33v574h-153v65h233v-622z" />
    <glyph glyph-name="K" unicode="K" horiz-adv-x="517" 
d="M413 0l-247 353v-353h-80v667h80v-313l242 313h93l-248 -308l257 -359h-97z" />
    <glyph glyph-name="L" unicode="L" horiz-adv-x="394" 
d="M86 0v667h80v-596h209v-71h-289z" />
    <glyph glyph-name="M" unicode="M" horiz-adv-x="678" 
d="M564 0l-53 591l-128 -591h-90l-131 591l-50 -591h-76l72 667h107l126 -590l125 590h104l72 -667h-78z" />
    <glyph glyph-name="N" unicode="N" horiz-adv-x="606" 
d="M411 0l-252 583v-583h-73v667h112l249 -581v581h73v-667h-109z" />
    <glyph glyph-name="O" unicode="O" horiz-adv-x="616" 
d="M480 344q0 42 -7 89.5t-26 87.5t-52.5 66t-86.5 26t-86 -26.5t-52.5 -66t-26.5 -87t-7 -89.5q0 -43 6 -93.5t24.5 -94t52 -73t89.5 -29.5t90 29t52 72.5t24 94t6 94.5zM564 344q0 -62 -12.5 -125t-42 -114t-79 -83.5t-122.5 -32.5q-79 0 -128.5 31t-78 81t-39 114
t-10.5 129q0 62 13 122t43 107t79 76t121 29q74 0 123.5 -28.5t79 -75t41.5 -106.5t12 -124z" />
    <glyph glyph-name="P" unicode="P" horiz-adv-x="472" 
d="M358 474q0 126 -122 126h-70v-253h56q62 0 99 28t37 99zM438 474q0 -91 -54 -142.5t-154 -51.5h-64v-280h-80v667h159q91 0 142 -49.5t51 -143.5z" />
    <glyph glyph-name="Q" unicode="Q" horiz-adv-x="616" 
d="M480 344q0 42 -7 89.5t-26 87.5t-52.5 66t-86.5 26t-86 -26.5t-52.5 -66t-26.5 -87t-7 -89.5q0 -43 6 -93.5t24.5 -94t52 -73t89.5 -29.5t90 29t52 72.5t24 94t6 94.5zM564 344q0 -50 -7 -102t-26 -99t-52.5 -84t-86.5 -56l80 -124l-89 -14l-73 124q-77 -1 -127 29.5
t-79 81t-40.5 114.5t-11.5 130q0 62 14 122t45 107t79.5 76t117.5 29q75 0 124 -27t78.5 -72.5t41.5 -106.5t12 -128z" />
    <glyph glyph-name="R" unicode="R" horiz-adv-x="506" 
d="M358 496q0 59 -30.5 81.5t-86.5 22.5h-75v-239h60q63 0 97.5 33t34.5 102zM398 0q-14 23 -23.5 47t-20.5 49l-57 130q-5 11 -13.5 23.5t-19 22.5t-24 16.5t-28.5 6.5h-46v-295h-80v667h161q43 0 79 -9t62 -29t40 -51t14 -76q0 -42 -13 -73.5t-34.5 -54t-49.5 -35.5
t-58 -18q22 -4 37 -13t25.5 -21t17.5 -25.5t13 -26.5l66 -146q11 -23 19.5 -45.5t21.5 -43.5h-89z" />
    <glyph glyph-name="S" unicode="S" horiz-adv-x="448" 
d="M399 194q0 -53 -17.5 -92t-49 -64t-74 -37t-91.5 -12q-30 0 -59.5 4t-58.5 15l4 71q28 -14 58.5 -19.5t61.5 -5.5q63 0 102 31t39 97q0 42 -19.5 65t-48.5 37.5t-63.5 27t-63.5 33t-48.5 55t-19.5 94.5q0 51 18 86t48.5 57t71.5 31.5t86 9.5q29 0 58 -4t56 -12l-17 -68
q-24 11 -51.5 15t-53.5 4q-60 0 -97 -24.5t-37 -90.5q0 -42 19.5 -65.5t49.5 -39t64 -28.5t64 -33t49.5 -52t19.5 -86z" />
    <glyph glyph-name="T" unicode="T" horiz-adv-x="392" 
d="M236 598v-598h-80v598h-144v69h368v-69h-144z" />
    <glyph glyph-name="U" unicode="U" horiz-adv-x="594" 
d="M513 241q0 -58 -12 -104.5t-38 -79.5t-67 -50.5t-99 -17.5q-60 0 -101.5 17.5t-67 50.5t-36.5 79.5t-11 104.5v426h80v-428q0 -32 6 -64.5t21.5 -58.5t41.5 -42t67 -16q43 0 70 16t41.5 42t19.5 58.5t5 64.5v428h80v-426z" />
    <glyph glyph-name="V" unicode="V" horiz-adv-x="516" 
d="M314 0h-111l-192 667h89l160 -597h2l158 597h85z" />
    <glyph glyph-name="W" unicode="W" horiz-adv-x="730" 
d="M576 0h-100l-111 584l-110 -584h-101l-130 667h81l101 -584l111 584h103l107 -584l100 584h79z" />
    <glyph glyph-name="X" unicode="X" horiz-adv-x="497" 
d="M389 0l-143 281l-141 -281h-91l187 343l-163 324h91l123 -260l122 260h85l-162 -319l186 -348h-94z" />
    <glyph glyph-name="Y" unicode="Y" horiz-adv-x="476" 
d="M278 273v-273h-80v269l-194 398h92l148 -316l142 316h86z" />
    <glyph glyph-name="Z" unicode="Z" horiz-adv-x="473" 
d="M33 0v59l306 539h-294v69h389v-60l-305 -538h311v-69h-407z" />
    <glyph glyph-name="bracketleft" unicode="[" horiz-adv-x="295" 
d="M92 -96v859h171v-59h-93v-741h93v-59h-171z" />
    <glyph glyph-name="backslash" unicode="\" horiz-adv-x="252" 
d="M194 0l-201 667h64l201 -667h-64z" />
    <glyph glyph-name="bracketright" unicode="]" horiz-adv-x="295" 
d="M32 -96v59h93v741h-93v59h171v-859h-171z" />
    <glyph glyph-name="asciicircum" unicode="^" horiz-adv-x="504" 
d="M352 379l-102 225l-102 -225h-82l146 288h81l145 -288h-86z" />
    <glyph glyph-name="underscore" unicode="_" horiz-adv-x="500" 
d="M0 -125v50h500v-50h-500z" />
    <glyph glyph-name="grave" unicode="`" 
d="M108 580l-105 136h93l73 -136h-61z" />
    <glyph glyph-name="a" unicode="a" horiz-adv-x="448" 
d="M300 228q-20 6 -41.5 8t-42.5 2t-39.5 -7.5t-32.5 -20.5t-22 -31.5t-8 -39.5q0 -19 3.5 -36t12 -30t23 -21t36.5 -8q21 0 40.5 7.5t35.5 21t25.5 32t9.5 40.5v83zM312 0l-9 58q-19 -36 -55.5 -51.5t-74.5 -15.5q-73 0 -104 39t-31 108q0 39 16 67.5t42 47.5t59.5 28
t68.5 9q20 0 38.5 -2.5t37.5 -5.5v61q0 46 -21 69t-69 23q-26 0 -58.5 -5.5t-53.5 -20.5l-18 61q32 15 65.5 20t68.5 5q37 0 66.5 -7t50.5 -23.5t32 -43t11 -66.5v-267q0 -23 3 -44.5l6 -43.5h-71z" />
    <glyph glyph-name="b" unicode="b" horiz-adv-x="486" 
d="M364 250q0 30 -3.5 63t-15.5 60.5t-34 46t-58 18.5q-26 0 -45.5 -10t-32.5 -27.5t-20 -40.5t-7 -50v-132q0 -63 29 -96.5t74 -33.5q34 0 55.5 21t34.5 52t18 66t5 63zM442 250q0 -50 -11 -96.5t-34 -82.5t-57.5 -58t-80.5 -22q-48 0 -74 21.5t-39 47.5l-9 -60h-63v712h75
v-287q18 32 49.5 51t74.5 19q45 0 77 -19.5t52.5 -52.5t30 -77.5t9.5 -95.5z" />
    <glyph glyph-name="c" unicode="c" horiz-adv-x="380" 
d="M348 9q-27 -14 -58 -16t-54 -2q-57 0 -94 21.5t-58.5 57.5t-30.5 83t-9 97q0 48 12.5 92.5t38 78.5t64 54t89.5 20q20 0 46 -2t52 -13l-18 -59q-23 10 -43.5 12.5t-40.5 2.5q-36 0 -60 -17.5t-37.5 -44.5t-19 -60t-5.5 -64q0 -42 6 -78.5t21 -63.5t40.5 -42.5t64.5 -15.5
q19 0 39 4t37 14z" />
    <glyph glyph-name="d" unicode="d" horiz-adv-x="486" 
d="M338 304q0 28 -7 52.5t-20.5 42.5t-33.5 28.5t-45 10.5q-32 0 -53 -17.5t-34 -44.5t-18 -59.5t-5 -62.5q0 -42 4.5 -79.5t16.5 -65.5t33 -44.5t53 -16.5q22 0 41.5 10t34.5 28t24 43.5t9 55.5v119zM346 0l-9 64q-17 -34 -48 -53.5t-82 -19.5q-46 0 -77 21t-50 56.5
t-27.5 82.5t-8.5 99q0 51 12 96t35 78t58 52t80 19q37 0 66.5 -18t41.5 -46v281h75v-712h-66z" />
    <glyph glyph-name="e" unicode="e" horiz-adv-x="438" 
d="M325 282q0 26 -4 54t-15 51t-31 38t-52 15q-29 0 -48.5 -16t-31.5 -40t-17.5 -51.5t-5.5 -50.5h205zM120 229q0 -37 6.5 -69.5t22.5 -57t43 -38.5t68 -14q25 0 51.5 5.5t49.5 15.5l18 -55q-27 -13 -66.5 -19t-69.5 -6q-57 0 -95.5 22t-61.5 58t-32.5 82.5t-9.5 96.5
q0 42 10 85.5t31.5 79t55.5 58t82 22.5q49 0 82.5 -19t54 -50.5t29.5 -72.5t9 -84v-40h-278z" />
    <glyph glyph-name="f" unicode="f" horiz-adv-x="285" 
d="M261 651q-11 2 -21 3.5t-28 0.5q-26 -1 -34 -22t-8 -47v-100h82v-59h-82v-427h-75v427h-70v59h70v89q0 76 29.5 106.5t101.5 30.5q11 0 25.5 -3l24.5 -5z" />
    <glyph glyph-name="g" unicode="g" horiz-adv-x="486" 
d="M338 303q0 28 -6.5 52.5t-19.5 43t-32.5 29t-44.5 10.5q-32 0 -54 -18t-35 -45.5t-18.5 -60.5t-5.5 -62q0 -38 4.5 -73.5t17 -62.5t34 -43t54.5 -16q22 0 41 10t33.5 28t23 43t8.5 55v110zM412 -5q0 -40 -14 -75t-41 -61.5t-68 -41.5t-95 -15q-39 0 -66.5 5.5t-59.5 16.5
l15 62q30 -14 55.5 -19.5t58.5 -5.5q37 0 64 11.5t43.5 30t24.5 42t8 47.5v86q-17 -33 -46 -55.5t-81 -22.5q-47 0 -78.5 19.5t-51 53t-28 79t-8.5 98.5q0 51 12 96t36 78t59 52t80 19q38 0 66 -19t40 -47l9 57h66v-491z" />
    <glyph glyph-name="h" unicode="h" horiz-adv-x="492" 
d="M343 0v339q0 40 -22.5 69.5t-67.5 29.5q-27 0 -46.5 -12.5t-32.5 -31.5t-19 -41.5t-6 -41.5v-311h-75v712h75v-295q7 18 21.5 32.5t32.5 24.5t37.5 15.5t37.5 5.5q36 0 62.5 -12.5t43.5 -34t25.5 -50t8.5 -60.5v-338h-75z" />
    <glyph glyph-name="i" unicode="i" 
d="M92 0v427h-66v59h141v-486h-75zM175 648q0 -20 -15 -35t-36 -15t-36 15t-15 35t15 35t36 15t36 -15t15 -35z" />
    <glyph glyph-name="j" unicode="j" 
d="M167 -33q0 -41 -5 -72t-18.5 -51.5t-38 -31t-63.5 -10.5q-9 0 -19.5 3t-19.5 7l15 55q6 -2 14.5 -4t17.5 -2q26 0 34 19t8 55v492h-66v59h141v-519zM175 648q0 -20 -15 -35t-36 -15t-36 15t-15 35t15 35t36 15t36 -15t15 -35z" />
    <glyph glyph-name="k" unicode="k" horiz-adv-x="428" 
d="M326 0l-177 254v-254h-75v712h75v-437l169 211h83l-178 -214l191 -272h-88z" />
    <glyph glyph-name="l" unicode="l" 
d="M228 5q-23 -14 -50 -14q-36 0 -57 9.5t-32 27.5t-14 43t-3 57v584h75v-586q0 -11 0.5 -24.5t4 -25t11.5 -19.5t23 -8q12 0 29 5z" />
    <glyph glyph-name="m" unicode="m" horiz-adv-x="726" 
d="M577 0v338q0 40 -21.5 70t-61.5 30q-26 0 -44 -11t-29 -29t-16 -40.5t-5 -45.5v-312h-74v338q0 48 -22 74t-62 26q-24 0 -42 -13t-29 -32.5t-16.5 -42.5t-5.5 -42v-308h-75v486h66l9 -69q7 18 20.5 32.5t30 24.5t34.5 15.5t35 5.5q27 0 47 -7.5t34 -18.5t24 -25t17 -27
q14 32 46.5 55t83.5 23q34 0 58.5 -12t40.5 -32.5t24 -48.5t8 -60v-342h-75z" />
    <glyph glyph-name="n" unicode="n" horiz-adv-x="492" 
d="M343 0v340q0 42 -23 70t-68 28q-25 0 -44 -11t-32 -29t-20 -40.5t-7 -44.5v-313h-75v486h66l9 -67q8 18 22 32t31.5 23.5t37 15t38.5 5.5q35 0 61.5 -12t44 -33.5t26 -50t8.5 -61.5v-338h-75z" />
    <glyph glyph-name="o" unicode="o" horiz-adv-x="466" 
d="M344 250q0 27 -3.5 59.5t-15.5 61t-34 48t-58 19.5t-58 -19.5t-34 -48t-15.5 -61t-3.5 -59.5t3.5 -62t14.5 -66t33 -52.5t60 -21.5q37 0 59.5 21.5t33.5 52.5t14.5 66t3.5 62zM422 250q0 -49 -9.5 -95.5t-31.5 -83t-58 -58.5t-90 -22q-55 0 -91.5 21.5t-58 57.5
t-30.5 82.5t-9 97.5q0 46 11.5 90t34.5 78.5t59 55.5t84 21q52 0 88 -20.5t58.5 -54.5t32.5 -78t10 -92z" />
    <glyph glyph-name="p" unicode="p" horiz-adv-x="486" 
d="M364 250q0 27 -3.5 59.5t-15 61t-33.5 48t-59 19.5q-27 0 -46.5 -11.5t-32.5 -30t-19.5 -43t-6.5 -49.5v-118q0 -30 7 -55t20.5 -43.5t32.5 -29t43 -10.5q34 0 55.5 20.5t34.5 50.5t18 65.5t5 65.5zM442 250q0 -48 -10.5 -94.5t-32.5 -83t-56 -59t-82 -22.5q-38 0 -67 18
t-45 47v-254h-75v684h65l9 -67q11 29 42.5 52.5t82.5 23.5q46 0 78 -20t52.5 -54t29.5 -78t9 -93z" />
    <glyph glyph-name="q" unicode="q" horiz-adv-x="486" 
d="M338 304q0 25 -5.5 48.5t-18 42.5t-32 30.5t-47.5 11.5q-33 0 -55 -19t-35 -46.5t-18 -59.5t-5 -58q0 -29 3 -64.5t14 -67t33.5 -53t60.5 -21.5q27 0 46.5 12.5t32.5 32t19.5 44t6.5 48.5v119zM337 -198v264q-20 -36 -52 -55.5t-77 -19.5q-53 0 -85.5 24.5t-50 63t-23 84
t-5.5 87.5q0 45 10 89t32.5 78.5t58.5 56t87 21.5q34 0 62 -17.5t41 -48.5l9 57h68v-684h-75z" />
    <glyph glyph-name="r" unicode="r" horiz-adv-x="316" 
d="M276 421q-20 5 -37 5q-27 0 -44 -12t-27.5 -31.5t-14.5 -43.5t-4 -47v-292h-75v486h64l9 -65q23 39 51 56.5t67 17.5q7 0 18.5 -1.5t18.5 -4.5z" />
    <glyph glyph-name="s" unicode="s" horiz-adv-x="349" 
d="M311 143q0 -40 -14.5 -68.5t-38.5 -47t-56.5 -27.5t-68.5 -9q-24 0 -48 3.5t-47 12.5l15 62q20 -13 42.5 -17t45.5 -4q42 0 67.5 21.5t25.5 66.5q0 28 -14 43.5t-35 26.5t-45.5 20.5t-45.5 24.5t-35 39.5t-14 65.5q0 37 12 63t34 43t51.5 25t65.5 8q23 0 46.5 -2.5
t45.5 -9.5l-14 -60q-38 15 -77 15q-18 0 -34 -4t-29 -13t-20.5 -23t-7.5 -35q0 -28 14.5 -45t35.5 -29t46.5 -22.5t46.5 -25.5t35.5 -38t14.5 -60z" />
    <glyph glyph-name="t" unicode="t" horiz-adv-x="283" 
d="M263 5l-17.5 -7t-15 -4.5t-17 -2t-23.5 -0.5q-60 0 -82 31.5t-22 100.5v304h-68v59h68v112l75 33v-145h95v-59h-95v-294q0 -42 11.5 -62.5t37.5 -20.5q14 0 23 1.5t22 6.5z" />
    <glyph glyph-name="u" unicode="u" horiz-adv-x="484" 
d="M345 0l-9 65q-8 -18 -22 -32t-31.5 -23t-36.5 -14t-37 -5q-38 0 -64 12t-42 33t-23.5 49.5t-7.5 60.5v340h74v-334q0 -51 21.5 -77.5t64.5 -26.5q27 0 46 13.5t32 33.5t19 42.5t6 41.5v307h75v-486h-65z" />
    <glyph glyph-name="v" unicode="v" horiz-adv-x="405" 
d="M239 0h-73l-154 486h83l109 -393h2l110 393h77z" />
    <glyph glyph-name="w" unicode="w" horiz-adv-x="565" 
d="M456 0h-85l-87 427l-87 -427h-85l-97 486h75l68 -416l84 416h91l85 -416l65 416h70z" />
    <glyph glyph-name="x" unicode="x" horiz-adv-x="387" 
d="M289 0l-100 198l-97 -198h-80l143 260l-121 226h80l81 -168l86 168h75l-126 -224l145 -262h-86z" />
    <glyph glyph-name="y" unicode="y" horiz-adv-x="404" 
d="M12 486h83l106 -389l114 389h77l-159 -486l-17 -50q-12 -35 -23.5 -62.5t-26 -46.5t-34 -29t-47.5 -10q-14 0 -27.5 1t-28.5 6l17 66q9 -3 14 -4t13 -1q30 0 45.5 17t26.5 55l17 58z" />
    <glyph glyph-name="z" unicode="z" horiz-adv-x="361" 
d="M28 0v51l217 376h-205v59h289v-52l-217 -375h221v-59h-305z" />
    <glyph glyph-name="braceleft" unicode="{" horiz-adv-x="295" 
d="M186 -96q-45 0 -69 26t-24 69v267q0 23 -9 42.5t-38 21.5v27q14 1 23 7.5t14.5 16t7.5 20.5t2 22v245q0 43 24 69t69 26h77v-59h-45q-23 0 -35.5 -8t-12.5 -34v-245q0 -26 -12.5 -43t-48.5 -30q36 -13 48.5 -29.5t12.5 -42.5v-267q0 -26 12.5 -34t35.5 -8h45v-59h-77z
" />
    <glyph glyph-name="bar" unicode="|" horiz-adv-x="252" 
d="M90 -42v750h73v-750h-73z" />
    <glyph glyph-name="braceright" unicode="}" horiz-adv-x="295" 
d="M249 330q-29 -2 -38 -21.5t-9 -42.5v-267q0 -43 -24 -69t-69 -26h-77v59h45q23 0 35.5 8t12.5 34v267q0 26 12.5 42.5t48.5 29.5q-36 13 -48.5 30t-12.5 43v245q0 26 -12.5 34t-35.5 8h-45v59h77q45 0 69 -26t24 -69v-245q0 -11 2 -22t7.5 -20.5t14.5 -16t23 -7.5v-27z
" />
    <glyph glyph-name="asciitilde" unicode="~" horiz-adv-x="600" 
d="M566 325q-2 -27 -10.5 -54t-23.5 -49t-37.5 -36t-52.5 -14q-34 0 -70.5 12t-73 26t-71.5 26t-66 12q-18 0 -32 -7.5t-24.5 -19t-16.5 -26t-8 -29.5h-46q3 27 11.5 54.5t24 49t38 35.5t53.5 14q33 0 70 -11.5t73.5 -26t71.5 -26t65 -11.5q19 0 33 7.5t23.5 19t15.5 26
t9 28.5h44z" />
    <glyph glyph-name="Euro" unicode="&#x20ac;" horiz-adv-x="504" 
d="M437 586q-27 11 -49 14.5t-49 3.5q-30 0 -54 -14t-42.5 -36.5t-30.5 -50t-17 -55.5h216l-10 -59h-218q-1 -11 -1.5 -23t-0.5 -22v-22v-11t1 -11h201l-10 -59h-182q5 -42 16.5 -76.5t29.5 -59.5t43 -39t57 -14q33 0 54.5 5t45.5 15v-67q-14 -5 -43 -10.5t-67 -5.5
q-53 0 -91.5 21t-64.5 56t-40.5 80.5t-19.5 94.5h-83l10 59h67q-1 5 -1 10.5v11.5v22q0 10 0.5 22t1.5 23h-75l10 59h75q9 43 26.5 82.5t44.5 70t64.5 48.5t87.5 18q35 0 67.5 -7t45.5 -13z" />
    <glyph glyph-name="quotesinglbase" unicode="&#x201a;" horiz-adv-x="252" 
d="M89 -129l-58 17l71 229l80 -23z" />
    <glyph glyph-name="florin" unicode="&#x192;" horiz-adv-x="504" 
d="M415 600q-10 2 -24.5 3.5t-25.5 1.5q-20 0 -36 -15t-23 -46l-37 -171h100v-59h-112l-79 -378q-8 -37 -20 -62.5t-31 -41.5t-45.5 -23.5t-63.5 -7.5q-11 0 -25 3t-23 6l23 58q10 -2 24.5 -3.5t25.5 -1.5q20 0 36 15t23 46l81 390h-88v59h102l33 159q13 73 50.5 104
t109.5 31q11 0 24.5 -2.5t22.5 -5.5z" />
    <glyph glyph-name="quotedblbase" unicode="&#x201e;" horiz-adv-x="404" 
d="M89 -129l-58 17l71 229l80 -23zM240 -129l-57 17l71 229l79 -23z" />
    <glyph glyph-name="ellipsis" unicode="&#x2026;" horiz-adv-x="1000" 
d="M225 52q0 -25 -17.5 -44t-40.5 -19t-40.5 19t-17.5 44t17.5 43.5t40.5 18.5t40.5 -18.5t17.5 -43.5zM558 52q0 -25 -17.5 -44t-40.5 -19t-40.5 19t-17.5 44t17.5 43.5t40.5 18.5t40.5 -18.5t17.5 -43.5zM891 52q0 -25 -17.5 -44t-40.5 -19t-40.5 19t-17.5 44t17.5 43.5
t40.5 18.5t40.5 -18.5t17.5 -43.5z" />
    <glyph glyph-name="dagger" unicode="&#x2020;" horiz-adv-x="504" 
d="M292 401v-599h-80v599h-161v68h161v198h80v-198h161v-68h-161z" />
    <glyph glyph-name="daggerdbl" unicode="&#x2021;" horiz-adv-x="504" 
d="M292 0v-198h-80v198h-161v68h161v333h-161v68h161v198h80v-198h161v-68h-161v-333h161v-68h-161z" />
    <glyph glyph-name="circumflex" unicode="&#x2c6;" 
d="M199 580l-79 101l-79 -101h-60l100 136h79l100 -136h-61z" />
    <glyph glyph-name="perthousand" unicode="&#x2030;" horiz-adv-x="1134" 
d="M264 474q0 13 -2 37.5t-9 47.5t-22 40.5t-40 17.5q-26 0 -41 -17t-22.5 -40.5t-9.5 -47.5t-2 -38q0 -15 1.5 -42.5t9 -54t22.5 -46.5t42 -20t42 20t21.5 46.5t8 54t1.5 42.5zM692 202q0 13 -2 37.5t-9.5 48t-22.5 41t-40 17.5q-26 0 -41 -17.5t-22.5 -41t-9.5 -48
t-2 -37.5q0 -15 1.5 -42.5t9 -54t22.5 -46.5t42 -20t42 20t22 46.5t8.5 54t1.5 42.5zM1017 202q0 13 -2 37.5t-9 48t-22 41t-40 17.5q-26 0 -41 -17.5t-22.5 -41t-9.5 -48t-2 -37.5q0 -15 1.5 -42.5t9 -54t22.5 -46.5t42 -20t42 20t21.5 46.5t8 54t1.5 42.5zM325 474
q0 -32 -3 -69t-16.5 -69t-40 -53.5t-74.5 -21.5t-75 21.5t-40.5 53.5t-17 69t-3.5 69q0 31 5 65t19.5 62.5t41 47t70.5 18.5q45 0 71.5 -18.5t40.5 -46.5t18 -62.5t4 -65.5zM286 -24h-65l302 704h65zM753 202q0 -32 -3 -69t-16.5 -69t-40.5 -53.5t-75 -21.5t-75 21.5
t-40.5 53.5t-17 69t-3.5 69q0 31 5 65t19.5 62.5t41 47.5t70.5 19q45 0 71.5 -18.5t40.5 -47t18.5 -63t4.5 -65.5zM1079 202q0 -32 -3 -69t-16.5 -69t-40.5 -53.5t-75 -21.5t-75 21.5t-40.5 53.5t-16.5 69t-3 69q0 31 4.5 65t19 62.5t41 47.5t70.5 19q45 0 71.5 -18.5
t40.5 -47t18.5 -63t4.5 -65.5z" />
    <glyph glyph-name="Scaron" unicode="&#x160;" horiz-adv-x="448" 
d="M399 194q0 -53 -17.5 -92t-49 -64t-74 -37t-91.5 -12q-30 0 -59.5 4t-58.5 15l4 71q28 -14 58.5 -19.5t61.5 -5.5q63 0 102 31t39 97q0 42 -19.5 65t-48.5 37.5t-63.5 27t-63.5 33t-48.5 55t-19.5 94.5q0 51 18 86t48.5 57t71.5 31.5t86 9.5q29 0 58 -4t56 -12l-17 -68
q-24 11 -51.5 15t-53.5 4q-60 0 -97 -24.5t-37 -90.5q0 -42 19.5 -65.5t49.5 -39t64 -28.5t64 -33t49.5 -52t19.5 -86zM267 724h-79l-100 136h64l79 -101l79 101h57z" />
    <glyph glyph-name="guilsinglleft" unicode="&#x2039;" horiz-adv-x="252" 
d="M144 80l-129 173l129 173h86l-132 -173l132 -173h-86z" />
    <glyph glyph-name="OE" unicode="&#x152;" horiz-adv-x="846" 
d="M480 344q0 42 -7 89.5t-26 87.5t-52.5 66t-86.5 26t-86 -26.5t-52.5 -66t-26.5 -87t-7 -89.5q0 -43 6 -93.5t24.5 -94t52 -73t89.5 -29.5t90 29t52 72.5t24 94t6 94.5zM480 0v68q-14 -15 -30 -29t-36 -25.5t-46 -18t-60 -6.5q-79 0 -128.5 31t-78 81t-39 114t-10.5 129
q0 62 13 122t43 107t79 76t121 29q69 0 109.5 -23t62.5 -51v63h309v-68h-229v-221h211v-67h-211v-242h241v-69h-321z" />
    <glyph glyph-name="Zcaron" unicode="&#x17d;" horiz-adv-x="473" 
d="M33 0v59l306 539h-294v69h389v-60l-305 -538h311v-69h-407zM277 724h-79l-100 136h64l79 -101l79 101h57z" />
    <glyph glyph-name="quoteleft" unicode="&#x2018;" horiz-adv-x="252" 
d="M150 538l-80 23l93 223l58 -17z" />
    <glyph glyph-name="quoteright" unicode="&#x2019;" horiz-adv-x="252" 
d="M128 538l-58 18l71 228l80 -23z" />
    <glyph glyph-name="quotedblleft" unicode="&#x201c;" horiz-adv-x="404" 
d="M150 538l-79 23l93 223l57 -17zM302 538l-80 23l93 223l58 -17z" />
    <glyph glyph-name="quotedblright" unicode="&#x201d;" horiz-adv-x="404" 
d="M129 538l-58 17l71 229l80 -23zM280 538l-57 17l71 229l79 -23z" />
    <glyph glyph-name="bullet" unicode="&#x2022;" horiz-adv-x="504" 
d="M373 306q0 -25 -9.5 -46.5t-26 -37.5t-38.5 -25.5t-47 -9.5t-47 9.5t-38.5 25.5t-26 37.5t-9.5 46.5t9.5 46.5t26 37.5t38.5 25.5t47 9.5t47 -9.5t38.5 -25.5t26 -37.5t9.5 -46.5z" />
    <glyph glyph-name="endash" unicode="&#x2013;" horiz-adv-x="500" 
d="M0 253v66h500v-66h-500z" />
    <glyph glyph-name="emdash" unicode="&#x2014;" horiz-adv-x="1000" 
d="M0 253v66h1000v-66h-1000z" />
    <glyph glyph-name="tilde" unicode="&#x2dc;" 
d="M260 702q0 -17 -7 -35t-19 -33.5t-28.5 -25.5t-35.5 -10q-18 0 -31 6.5t-24.5 14.5t-22.5 14.5t-24 6.5q-16 0 -25.5 -15t-9.5 -31h-52q0 18 6.5 36.5t18 33.5t28 24.5t36.5 9.5q17 0 31 -6.5t26 -14.5t23 -14.5t22 -6.5q17 0 26.5 16t9.5 30h52z" />
    <glyph glyph-name="trademark" unicode="&#x2122;" horiz-adv-x="739" 
d="M171 609v-343h-69v343h-93v58h256v-58h-94zM639 267l-34 319l-69 -319h-73l-75 319l-27 -319h-65l48 400h87l70 -326l66 326h89l48 -400h-65z" />
    <glyph glyph-name="scaron" unicode="&#x161;" horiz-adv-x="349" 
d="M311 143q0 -40 -14.5 -68.5t-38.5 -47t-56.5 -27.5t-68.5 -9q-24 0 -48 3.5t-47 12.5l15 62q20 -13 42.5 -17t45.5 -4q42 0 67.5 21.5t25.5 66.5q0 28 -14 43.5t-35 26.5t-45.5 20.5t-45.5 24.5t-35 39.5t-14 65.5q0 37 12 63t34 43t51.5 25t65.5 8q23 0 46.5 -2.5
t45.5 -9.5l-14 -60q-38 15 -77 15q-18 0 -34 -4t-29 -13t-20.5 -23t-7.5 -35q0 -28 14.5 -45t35.5 -29t46.5 -22.5t46.5 -25.5t35.5 -38t14.5 -60zM213 580h-79l-100 136h64l79 -101l79 101h57z" />
    <glyph glyph-name="guilsinglright" unicode="&#x203a;" horiz-adv-x="252" 
d="M108 80h-86l132 173l-132 173h86l129 -173z" />
    <glyph glyph-name="oe" unicode="&#x153;" horiz-adv-x="738" 
d="M344 250q0 27 -3.5 59.5t-15.5 61t-34 48t-58 19.5t-58 -19.5t-34 -48t-15.5 -61t-3.5 -59.5t3.5 -62t14.5 -66t33 -52.5t60 -21.5q37 0 59.5 21.5t33.5 52.5t14.5 66t3.5 62zM625 282q0 26 -4 54t-15 51t-31 38t-52 15q-29 0 -48.5 -16t-31.5 -40t-17.5 -51.5
t-5.5 -50.5h205zM420 229q0 -37 6.5 -69.5t22.5 -57t43 -38.5t68 -14q25 0 51.5 5.5t49.5 15.5l18 -55q-29 -12 -68 -18.5t-70 -6.5q-65 0 -100.5 23.5t-57.5 64.5q-11 -20 -24 -36t-30.5 -27.5t-41 -18t-54.5 -6.5q-55 0 -91.5 21.5t-58 57.5t-30.5 82.5t-9 97.5
q0 46 11.5 90t34.5 78.5t59 55.5t84 21q58 0 95 -25t59 -67q20 39 54 65.5t82 26.5q49 0 82.5 -19t54 -50.5t29.5 -72.5t9 -84v-40h-278z" />
    <glyph glyph-name="zcaron" unicode="&#x17e;" horiz-adv-x="361" 
d="M28 0v51l217 376h-205v59h289v-52l-217 -375h221v-59h-305zM226 580h-79l-100 136h64l79 -101l79 101h57z" />
    <glyph glyph-name="Ydieresis" unicode="&#x178;" horiz-adv-x="476" 
d="M278 273v-273h-80v269l-194 398h92l148 -316l142 316h86zM207 792q0 -23 -15.5 -39.5t-38.5 -16.5t-39 16.5t-16 39.5t16 39.5t39 16.5t38.5 -16.5t15.5 -39.5zM377 792q0 -23 -15.5 -39.5t-38.5 -16.5t-39 16.5t-16 39.5t16 39.5t39 16.5t38.5 -16.5t15.5 -39.5z" />
    <glyph glyph-name="uni00A0" unicode="&#xa0;" horiz-adv-x="252" 
 />
    <glyph glyph-name="exclamdown" unicode="&#xa1;" horiz-adv-x="268" 
d="M97 -198v502h75v-502h-75zM193 437q0 -25 -17 -41.5t-42 -16.5t-42 16.5t-17 41.5t17 41.5t42 16.5t42 -16.5t17 -41.5z" />
    <glyph glyph-name="cent" unicode="&#xa2;" horiz-adv-x="504" 
d="M404 95q-22 -11 -46 -15.5t-46 -5.5v-74h-70v78q-44 9 -73.5 34.5t-47.5 61t-26 78.5t-8 87q0 41 10 79.5t30 70.5t49.5 55t68.5 34v78h69v-71q20 0 43.5 -4t45.5 -14l-18 -60q-45 18 -86 18q-38 0 -64 -18t-42 -45.5t-23 -60t-7 -62.5q0 -40 8 -77t25.5 -65t45.5 -45
t68 -17q18 0 38.5 5t37.5 15z" />
    <glyph glyph-name="sterling" unicode="&#xa3;" horiz-adv-x="504" 
d="M423 592q-26 7 -50.5 10.5t-50.5 3.5q-35 0 -56.5 -12t-34 -33t-17 -48t-4.5 -57q0 -19 2.5 -40.5t6.5 -41.5h130v-59h-121q6 -32 9.5 -57t3.5 -51q0 -16 -3 -35.5t-8 -39.5t-13 -38.5t-18 -31.5h227v-62h-356v62h67q14 28 21 63t7 64q0 34 -3.5 62t-8.5 64h-71v59h60
q-5 24 -7.5 47.5t-2.5 43.5q0 94 42 148t139 54q28 0 60.5 -3.5t64.5 -12.5z" />
    <glyph glyph-name="currency" unicode="&#xa4;" horiz-adv-x="600" 
d="M445 344q0 31 -11 58.5t-30.5 47.5t-46 31.5t-57.5 11.5t-57.5 -11.5t-46 -31.5t-30.5 -47.5t-11 -58.5q0 -32 11 -59t30.5 -47t46 -31.5t57.5 -11.5t57.5 11.5t46 31.5t30.5 47t11 59zM475 468q20 -29 31 -59t11 -65t-11 -65.5t-31 -59.5l63 -62l-47 -47l-64 63
q-30 -20 -61 -30.5t-66 -10.5t-66 10.5t-61 30.5l-64 -63l-48 47l64 62q-42 58 -42 125q0 35 11 65t31 59l-63 63l48 47l63 -63q30 20 61 30.5t66 10.5q68 0 127 -41l64 63l48 -47z" />
    <glyph glyph-name="yen" unicode="&#xa5;" horiz-adv-x="504" 
d="M317 343h101v-59h-128v-86h128v-59h-128v-139h-76v139h-127v59h127v86h-127v59h97l-137 310h86l122 -298l119 298h83z" />
    <glyph glyph-name="brokenbar" unicode="&#xa6;" horiz-adv-x="252" 
d="M90 -42v250h73v-250h-73zM90 458v250h73v-250h-73z" />
    <glyph glyph-name="section" unicode="&#xa7;" horiz-adv-x="504" 
d="M352 331q0 22 -16.5 36.5t-39.5 24.5t-47 16t-40 12q-24 -12 -40 -34.5t-16 -50.5q0 -21 16 -35.5t38 -24.5t45.5 -16t39.5 -9q27 9 43.5 30t16.5 51zM426 336q0 -42 -19.5 -73t-67.5 -45q23 -18 32 -45t9 -53q0 -38 -16 -63t-41.5 -40t-56 -21.5t-58.5 -6.5t-53.5 3.5
t-52.5 17.5l19 62q20 -15 45 -18.5t45 -3.5q39 0 65.5 19.5t26.5 62.5q0 23 -16.5 36t-41.5 22.5t-54 18t-54 23t-41.5 38t-16.5 63.5q0 43 21 70t61 43q-20 18 -31 39.5t-11 56.5t15.5 59t39 38.5t52 21t54.5 6.5q38 0 59.5 -5.5t34.5 -10.5l-18 -60q-23 8 -44 12t-47 4
q-29 0 -49.5 -21.5t-20.5 -52.5q0 -22 17 -34.5t43 -21.5t55.5 -17.5t55.5 -23t43 -38t17 -62.5z" />
    <glyph glyph-name="dieresis" unicode="&#xa8;" 
d="M83 648q0 -23 -15.5 -39.5t-38.5 -16.5t-39 16.5t-16 39.5t16 39.5t39 16.5t38.5 -16.5t15.5 -39.5zM253 648q0 -23 -15.5 -39.5t-38.5 -16.5t-39 16.5t-16 39.5t16 39.5t39 16.5t38.5 -16.5t15.5 -39.5z" />
    <glyph glyph-name="copyright" unicode="&#xa9;" horiz-adv-x="769" 
d="M466 488q-33 10 -61 10q-38 0 -64 -12t-42.5 -33t-24 -49t-7.5 -60q0 -36 5.5 -66.5t21 -53t42.5 -35t71 -12.5q14 0 28 2.5t34 8.5v-55q-19 -5 -37 -6.5t-33 -1.5q-57 0 -95 15.5t-61 44t-33 69t-10 90.5q0 44 14.5 82t41 65.5t64.5 43t85 15.5q16 0 35.5 -2t39.5 -8z
M652 344q0 52 -20 102t-55.5 89t-85 63t-107.5 24q-59 0 -108 -23.5t-84.5 -62t-55 -88.5t-19.5 -104q0 -63 19.5 -118t55 -95t84.5 -63t108 -23q58 0 107.5 23t85 63.5t55.5 95t20 117.5zM716 344q0 -75 -25 -140t-69.5 -113t-105.5 -75t-132 -27t-132 26.5t-105.5 74
t-69.5 112.5t-25 142q0 66 25 126t69.5 106.5t105.5 74t132 27.5t132 -27.5t105.5 -73.5t69.5 -106.5t25 -126.5z" />
    <glyph glyph-name="ordfeminine" unicode="&#xaa;" horiz-adv-x="378" 
d="M220 498q-20 5 -52 5q-31 0 -46 -16t-15 -36q0 -22 10.5 -35t34.5 -13q26 0 47 15.5t21 38.5v41zM228 364l-5 27q-16 -17 -37.5 -25.5t-43.5 -8.5q-45 0 -70.5 25t-25.5 67q0 25 12 43t30.5 29t41 16t43.5 5q12 0 24.5 -1t22.5 -3v32q0 53 -54 53q-15 0 -37 -4t-39 -15
l-15 45q25 11 48 14.5t46 3.5q54 0 81 -24t27 -64v-159q0 -13 2.5 -26t4.5 -30h-56z" />
    <glyph glyph-name="guillemotleft" unicode="&#xab;" horiz-adv-x="418" 
d="M144 80l-129 173l129 173h86l-132 -173l132 -173h-86zM310 80l-129 173l129 173h86l-132 -173l132 -173h-86z" />
    <glyph glyph-name="logicalnot" unicode="&#xac;" horiz-adv-x="600" 
d="M481 103v210h-436v68h510v-278h-74z" />
    <glyph glyph-name="uni00AD" unicode="&#xad;" horiz-adv-x="318" 
d="M42 253v66h234v-66h-234z" />
    <glyph glyph-name="registered" unicode="&#xae;" horiz-adv-x="769" 
d="M439 436q0 62 -70 62h-43v-131h33q39 0 59.5 15.5t20.5 53.5zM467 138q-9 15 -15.5 30t-14.5 31l-37 78q-6 13 -19.5 25.5t-30.5 12.5h-24v-177h-64v412h111q58 0 95 -27t37 -84q0 -46 -24 -69.5t-58 -33.5q17 -8 25 -20t16 -28l28 -57.5l28 -57.5q3 -7 7.5 -14.5
l12.5 -20.5h-73zM652 344q0 52 -20 102t-55.5 89t-85 63t-107.5 24q-59 0 -108 -23.5t-84.5 -62t-55 -88.5t-19.5 -104q0 -63 19.5 -118t55 -95t84.5 -63t108 -23q58 0 107.5 23t85 63.5t55.5 95t20 117.5zM716 344q0 -75 -25 -140t-69.5 -113t-105.5 -75t-132 -27
t-132 26.5t-105.5 74t-69.5 112.5t-25 142q0 66 25 126t69.5 106.5t105.5 74t132 27.5t132 -27.5t105.5 -73.5t69.5 -106.5t25 -126.5z" />
    <glyph glyph-name="macron" unicode="&#xaf;" 
d="M0 622v52h241v-52h-241z" />
    <glyph glyph-name="degree" unicode="&#xb0;" horiz-adv-x="400" 
d="M296 530q0 21 -7.5 40t-20.5 33.5t-30.5 22.5t-37.5 8t-37.5 -8t-30.5 -22.5t-20.5 -33.5t-7.5 -40t7.5 -40t20.5 -33.5t30.5 -22.5t37.5 -8t37.5 8t30.5 22.5t20.5 33.5t7.5 40zM349 530q0 -31 -11.5 -58t-32 -47t-47.5 -31.5t-58 -11.5t-58 11.5t-47.5 31.5t-32 47
t-11.5 58t11.5 58t32 47t47.5 31.5t58 11.5t58 -11.5t47.5 -31.5t32 -47t11.5 -58z" />
    <glyph glyph-name="plusminus" unicode="&#xb1;" horiz-adv-x="600" 
d="M45 0v65h510v-65h-510zM336 267v-152h-72v152h-219v66h219v153h72v-153h219v-66h-219z" />
    <glyph glyph-name="twosuperior" unicode="&#xb2;" horiz-adv-x="378" 
d="M47 262v26q0 37 13.5 64t33.5 48.5t44 39.5t44 36.5t33.5 39.5t13.5 48q0 26 -17.5 41.5t-48.5 15.5q-25 0 -47 -7t-44 -18l-18 44q27 14 53 20.5t58 6.5q25 0 48 -5.5t40.5 -17t27.5 -30.5t10 -46q0 -33 -14 -60t-35.5 -49.5t-46 -42l-45.5 -37t-34.5 -35t-12.5 -36.5
h192v-46h-248z" />
    <glyph glyph-name="threesuperior" unicode="&#xb3;" horiz-adv-x="378" 
d="M299 384q0 -67 -41.5 -94.5t-113.5 -27.5q-9 0 -20.5 0.5t-24 2t-24 4.5t-20.5 9l6 48q18 -9 44 -12.5t43 -3.5q38 0 62.5 17t24.5 54q0 16 -7.5 28.5t-19.5 21.5t-27.5 13.5t-30.5 4.5h-54v49h55q35 0 57.5 18t22.5 52q0 26 -21.5 38.5t-48.5 12.5q-37 0 -85 -17l-13 48
q29 8 49.5 12.5t47.5 4.5t50.5 -4.5t41.5 -15.5t28 -30t10 -48q0 -58 -65 -90q38 -11 56 -37t18 -58z" />
    <glyph glyph-name="acute" unicode="&#xb4;" 
d="M135 580h-62l73 136h94z" />
    <glyph glyph-name="mu" unicode="&#xb5;" horiz-adv-x="504" 
d="M356 0l-9 65q-16 -36 -48 -55t-58 -19q-23 0 -44 4.5t-39 23.5v-217h-75v684h75v-334q0 -51 21.5 -77.5t64.5 -26.5q27 0 46 13.5t32 33.5t19 42.5t6 41.5v307h75v-486h-66z" />
    <glyph glyph-name="paragraph" unicode="&#xb6;" horiz-adv-x="628" 
d="M450 -218v824h-124v-824h-77v531q-39 0 -75 11t-64 33t-45 54.5t-17 74.5q0 43 17 76.5t46.5 56.5t69.5 35.5t87 12.5h259v-885h-77z" />
    <glyph glyph-name="periodcentered" unicode="&#xb7;" horiz-adv-x="252" 
d="M184 306q0 -25 -17.5 -44t-40.5 -19t-40.5 19t-17.5 44t17.5 43.5t40.5 18.5t40.5 -18.5t17.5 -43.5z" />
    <glyph glyph-name="cedilla" unicode="&#xb8;" 
d="M215 -112q0 -35 -29 -54.5t-72 -19.5q-22 0 -46 3.5t-42 13.5l13 31q16 -6 31.5 -10.5t35.5 -4.5q21 0 35.5 10.5t14.5 27.5t-11 24.5t-25 7.5q-13 0 -21.5 -1.5t-17.5 -5.5l-11 19l58 71h40l-50 -54q6 2 14 3.5t21 1.5q26 0 44 -17.5t18 -45.5z" />
    <glyph glyph-name="onesuperior" unicode="&#xb9;" horiz-adv-x="378" 
d="M66 262v52h92v283l-98 -51l-7 54l113 56h56v-342h87v-52h-243z" />
    <glyph glyph-name="ordmasculine" unicode="&#xba;" horiz-adv-x="378" 
d="M256 516q0 16 -2.5 34t-9.5 34t-20 26.5t-34 10.5t-34 -10.5t-20.5 -26.5t-10 -34t-2.5 -34q0 -14 1.5 -33.5t8.5 -37t20.5 -30t36.5 -12.5t36.5 12.5t20 30t8 37t1.5 33.5zM318 516q0 -29 -6 -57.5t-21 -51t-39.5 -36.5t-61.5 -14q-38 0 -62.5 13.5t-39.5 36t-21 51
t-6 58.5q0 27 7.5 54t23 48.5t40 35t58.5 13.5q35 0 59.5 -13t39.5 -34.5t22 -48.5t7 -55z" />
    <glyph glyph-name="guillemotright" unicode="&#xbb;" horiz-adv-x="418" 
d="M108 80h-86l132 173l-132 173h86l129 -173zM274 80h-86l132 173l-132 173h86l129 -173z" />
    <glyph glyph-name="onequarter" unicode="&#xbc;" horiz-adv-x="882" 
d="M66 262v52h92v283l-98 -51l-7 54l113 56h56v-342h87v-52h-243zM339 -24h-65l302 704h65zM808 95h-48v-95h-67v95h-175v39l27 63l28 67.5l27.5 69l25.5 66.5h67l-25 -64l-26.5 -67.5l-26.5 -65.5t-25 -58h103v75h67v-75h48v-50z" />
    <glyph glyph-name="onehalf" unicode="&#xbd;" horiz-adv-x="882" 
d="M66 262v52h92v283l-98 -51l-7 54l113 56h56v-342h87v-52h-243zM321 -24h-65l302 704h65zM551 0v27q0 36 13.5 62t33.5 46.5t43 37t43 34t33.5 37.5t13.5 48q0 26 -17 40.5t-47 14.5q-25 0 -47 -7t-45 -18l-18 46q28 14 53.5 20.5t57.5 6.5q25 0 48 -5t40.5 -17t27.5 -31
t10 -46q0 -33 -13.5 -59.5t-34.5 -47.5t-44.5 -38.5l-44.5 -34t-34.5 -33t-13.5 -35.5h190v-48h-248z" />
    <glyph glyph-name="threequarters" unicode="&#xbe;" horiz-adv-x="882" 
d="M300 384q0 -68 -42 -95.5t-113 -27.5q-8 0 -20 0.5t-24.5 2t-24.5 5t-21 9.5l6 48q18 -10 44.5 -13.5t43.5 -3.5q38 0 62.5 17.5t24.5 54.5q0 16 -7.5 28.5t-19.5 21.5t-27 13.5t-31 4.5h-55v49h56q36 0 58 18t22 52q0 26 -21.5 38.5t-48.5 12.5q-38 0 -86 -17l-13 48
q29 8 50 12.5t48 4.5t50.5 -4.5t41.5 -15.5t28 -30t10 -48q0 -59 -66 -90q38 -11 56.5 -37t18.5 -58zM325 -24h-65l302 704h65zM808 95h-48v-95h-67v95h-175v39l27 63l28 67.5l27.5 69l25.5 66.5h67l-25 -64l-26.5 -67.5l-26.5 -65.5t-25 -58h103v75h67v-75h48v-50z" />
    <glyph glyph-name="questiondown" unicode="&#xbf;" horiz-adv-x="384" 
d="M354 -161q-35 -18 -73.5 -27.5t-73.5 -9.5q-36 0 -67 8.5t-53.5 26.5t-35.5 46t-13 66q0 30 10.5 53.5t26.5 44t34.5 38.5t34.5 37t26.5 41t10.5 50v91h75v-21q0 -13 0.5 -28t0.5 -29v-22q0 -41 -21.5 -73.5t-47 -61t-47 -56t-21.5 -58.5q0 -45 25 -66.5t70 -21.5
q40 0 66 7.5t56 27.5zM275 437q0 -25 -17 -41.5t-42 -16.5t-42 16.5t-17 41.5t17 41.5t42 16.5t42 -16.5t17 -41.5z" />
    <glyph glyph-name="Agrave" unicode="&#xc0;" horiz-adv-x="509" 
d="M252 612l-92 -358h187zM414 0l-51 192h-219l-49 -192h-82l183 667h117l183 -667h-82zM237 724l-105 136h93l73 -136h-61z" />
    <glyph glyph-name="Aacute" unicode="&#xc1;" horiz-adv-x="509" 
d="M252 612l-92 -358h187zM414 0l-51 192h-219l-49 -192h-82l183 667h117l183 -667h-82zM273 724h-62l73 136h94z" />
    <glyph glyph-name="Acircumflex" unicode="&#xc2;" horiz-adv-x="509" 
d="M252 612l-92 -358h187zM414 0l-51 192h-219l-49 -192h-82l183 667h117l183 -667h-82zM333 724l-79 101l-79 -101h-60l100 136h79l100 -136h-61z" />
    <glyph glyph-name="Atilde" unicode="&#xc3;" horiz-adv-x="509" 
d="M252 612l-92 -358h187zM414 0l-51 192h-219l-49 -192h-82l183 667h117l183 -667h-82zM394 846q0 -17 -7 -35t-19 -33.5t-28.5 -25.5t-35.5 -10q-18 0 -31 6.5t-24.5 14.5t-22.5 14.5t-24 6.5q-16 0 -25.5 -15t-9.5 -31h-52q0 18 6.5 36.5t18 33.5t28 24.5t36.5 9.5
q17 0 31 -6.5t26 -14.5t23 -14.5t22 -6.5q17 0 26.5 16t9.5 30h52z" />
    <glyph glyph-name="Adieresis" unicode="&#xc4;" horiz-adv-x="509" 
d="M252 612l-92 -358h187zM414 0l-51 192h-219l-49 -192h-82l183 667h117l183 -667h-82zM224 792q0 -23 -15.5 -39.5t-38.5 -16.5t-39 16.5t-16 39.5t16 39.5t39 16.5t38.5 -16.5t15.5 -39.5zM394 792q0 -23 -15.5 -39.5t-38.5 -16.5t-39 16.5t-16 39.5t16 39.5t39 16.5
t38.5 -16.5t15.5 -39.5z" />
    <glyph glyph-name="Aring" unicode="&#xc5;" horiz-adv-x="509" 
d="M252 612l-92 -358h187zM414 0l-51 192h-219l-49 -192h-82l183 667h117l183 -667h-82zM313 792q0 25 -16.5 42.5t-42.5 17.5q-24 0 -42 -17.5t-18 -42.5q0 -26 17.5 -43t42.5 -17q26 0 42.5 17t16.5 43zM351 792q0 -40 -28.5 -65.5t-68.5 -25.5q-42 0 -69.5 25.5
t-27.5 65.5t28.5 65.5t68.5 25.5q42 0 69.5 -25.5t27.5 -65.5z" />
    <glyph glyph-name="AE" unicode="&#xc6;" horiz-adv-x="725" 
d="M360 599l-159 -345h159v345zM360 0v192h-187l-90 -192h-90l320 667h355v-68h-229v-221h211v-67h-211v-242h241v-69h-320z" />
    <glyph glyph-name="Ccedilla" unicode="&#xc7;" horiz-adv-x="495" 
d="M446 597q-45 14 -87 14q-60 0 -102.5 -21t-69 -57.5t-39 -85t-12.5 -103.5q0 -60 9 -112.5t33.5 -91.5t68.5 -61.5t114 -22.5q45 0 87 15v-70q-20 -6 -43.5 -8.5t-45.5 -3.5l-41 -43q15 5 36 5q26 0 43.5 -17.5t17.5 -45.5q0 -35 -28.5 -54.5t-71.5 -19.5q-22 0 -46 3.5
t-42 13.5l12 31q16 -6 32 -10.5t36 -4.5q21 0 36 10.5t15 27.5t-11.5 24.5t-25.5 7.5q-25 0 -40 -7l-11 19l51 61q-76 4 -127.5 30.5t-83 72t-45 109t-13.5 142.5q0 72 21.5 133t61.5 105.5t96.5 70t127.5 25.5q24 0 52 -3t52 -11z" />
    <glyph glyph-name="Egrave" unicode="&#xc8;" horiz-adv-x="453" 
d="M86 0v667h310v-68h-229v-221h211v-67h-211v-242h241v-69h-322zM223 724l-105 136h93l73 -136h-61z" />
    <glyph glyph-name="Eacute" unicode="&#xc9;" horiz-adv-x="453" 
d="M86 0v667h310v-68h-229v-221h211v-67h-211v-242h241v-69h-322zM259 724h-62l73 136h94z" />
    <glyph glyph-name="Ecircumflex" unicode="&#xca;" horiz-adv-x="453" 
d="M86 0v667h310v-68h-229v-221h211v-67h-211v-242h241v-69h-322zM318 724l-79 101l-79 -101h-60l100 136h79l100 -136h-61z" />
    <glyph glyph-name="Edieresis" unicode="&#xcb;" horiz-adv-x="453" 
d="M86 0v667h310v-68h-229v-221h211v-67h-211v-242h241v-69h-322zM209 792q0 -23 -15.5 -39.5t-38.5 -16.5t-39 16.5t-16 39.5t16 39.5t39 16.5t38.5 -16.5t15.5 -39.5zM379 792q0 -23 -15.5 -39.5t-38.5 -16.5t-39 16.5t-16 39.5t16 39.5t39 16.5t38.5 -16.5t15.5 -39.5z
" />
    <glyph glyph-name="Igrave" unicode="&#xcc;" horiz-adv-x="252" 
d="M86 0v667h80v-667h-80zM106 724l-105 136h93l73 -136h-61z" />
    <glyph glyph-name="Iacute" unicode="&#xcd;" horiz-adv-x="252" 
d="M86 0v667h80v-667h-80zM148 724h-62l73 136h94z" />
    <glyph glyph-name="Icircumflex" unicode="&#xce;" horiz-adv-x="252" 
d="M86 0v667h80v-667h-80zM204 724l-79 101l-79 -101h-60l100 136h79l100 -136h-61z" />
    <glyph glyph-name="Idieresis" unicode="&#xcf;" horiz-adv-x="252" 
d="M86 0v667h80v-667h-80zM96 792q0 -23 -15.5 -39.5t-38.5 -16.5t-39 16.5t-16 39.5t16 39.5t39 16.5t38.5 -16.5t15.5 -39.5zM266 792q0 -23 -15.5 -39.5t-38.5 -16.5t-39 16.5t-16 39.5t16 39.5t39 16.5t38.5 -16.5t15.5 -39.5z" />
    <glyph glyph-name="Eth" unicode="&#xd0;" horiz-adv-x="582" 
d="M446 344q0 49 -9.5 95t-33 81.5t-61.5 56.5t-95 21h-81v-222h124v-76h-124v-231h93q57 0 93.5 26.5t57 67t28.5 89t8 92.5zM530 344q0 -72 -14.5 -135t-46.5 -109.5t-83.5 -73t-126.5 -26.5h-173v300h-72v76h72v291h184q72 0 121.5 -24.5t80 -68t44.5 -102.5t14 -128z
" />
    <glyph glyph-name="Ntilde" unicode="&#xd1;" horiz-adv-x="606" 
d="M411 0l-252 583v-583h-73v667h112l249 -581v581h73v-667h-109zM443 846q0 -17 -7 -35t-19 -33.5t-28.5 -25.5t-35.5 -10q-18 0 -31 6.5t-24.5 14.5t-22.5 14.5t-24 6.5q-16 0 -25.5 -15t-9.5 -31h-52q0 18 6.5 36.5t18 33.5t28 24.5t36.5 9.5q17 0 31 -6.5t26 -14.5
t23 -14.5t22 -6.5q17 0 26.5 16t9.5 30h52z" />
    <glyph glyph-name="Ograve" unicode="&#xd2;" horiz-adv-x="616" 
d="M480 344q0 42 -7 89.5t-26 87.5t-52.5 66t-86.5 26t-86 -26.5t-52.5 -66t-26.5 -87t-7 -89.5q0 -43 6 -93.5t24.5 -94t52 -73t89.5 -29.5t90 29t52 72.5t24 94t6 94.5zM564 344q0 -62 -12.5 -125t-42 -114t-79 -83.5t-122.5 -32.5q-79 0 -128.5 31t-78 81t-39 114
t-10.5 129q0 62 13 122t43 107t79 76t121 29q74 0 123.5 -28.5t79 -75t41.5 -106.5t12 -124zM286 724l-105 136h93l73 -136h-61z" />
    <glyph glyph-name="Oacute" unicode="&#xd3;" horiz-adv-x="616" 
d="M480 344q0 42 -7 89.5t-26 87.5t-52.5 66t-86.5 26t-86 -26.5t-52.5 -66t-26.5 -87t-7 -89.5q0 -43 6 -93.5t24.5 -94t52 -73t89.5 -29.5t90 29t52 72.5t24 94t6 94.5zM564 344q0 -62 -12.5 -125t-42 -114t-79 -83.5t-122.5 -32.5q-79 0 -128.5 31t-78 81t-39 114
t-10.5 129q0 62 13 122t43 107t79 76t121 29q74 0 123.5 -28.5t79 -75t41.5 -106.5t12 -124zM332 724h-62l73 136h94z" />
    <glyph glyph-name="Ocircumflex" unicode="&#xd4;" horiz-adv-x="616" 
d="M480 344q0 42 -7 89.5t-26 87.5t-52.5 66t-86.5 26t-86 -26.5t-52.5 -66t-26.5 -87t-7 -89.5q0 -43 6 -93.5t24.5 -94t52 -73t89.5 -29.5t90 29t52 72.5t24 94t6 94.5zM564 344q0 -62 -12.5 -125t-42 -114t-79 -83.5t-122.5 -32.5q-79 0 -128.5 31t-78 81t-39 114
t-10.5 129q0 62 13 122t43 107t79 76t121 29q74 0 123.5 -28.5t79 -75t41.5 -106.5t12 -124zM386 724l-79 101l-79 -101h-60l100 136h79l100 -136h-61z" />
    <glyph glyph-name="Otilde" unicode="&#xd5;" horiz-adv-x="616" 
d="M480 344q0 42 -7 89.5t-26 87.5t-52.5 66t-86.5 26t-86 -26.5t-52.5 -66t-26.5 -87t-7 -89.5q0 -43 6 -93.5t24.5 -94t52 -73t89.5 -29.5t90 29t52 72.5t24 94t6 94.5zM564 344q0 -62 -12.5 -125t-42 -114t-79 -83.5t-122.5 -32.5q-79 0 -128.5 31t-78 81t-39 114
t-10.5 129q0 62 13 122t43 107t79 76t121 29q74 0 123.5 -28.5t79 -75t41.5 -106.5t12 -124zM448 846q0 -17 -7 -35t-19 -33.5t-28.5 -25.5t-35.5 -10q-18 0 -31 6.5t-24.5 14.5t-22.5 14.5t-24 6.5q-16 0 -25.5 -15t-9.5 -31h-52q0 18 6.5 36.5t18 33.5t28 24.5t36.5 9.5
q17 0 31 -6.5t26 -14.5t23 -14.5t22 -6.5q17 0 26.5 16t9.5 30h52z" />
    <glyph glyph-name="Odieresis" unicode="&#xd6;" horiz-adv-x="616" 
d="M480 344q0 42 -7 89.5t-26 87.5t-52.5 66t-86.5 26t-86 -26.5t-52.5 -66t-26.5 -87t-7 -89.5q0 -43 6 -93.5t24.5 -94t52 -73t89.5 -29.5t90 29t52 72.5t24 94t6 94.5zM564 344q0 -62 -12.5 -125t-42 -114t-79 -83.5t-122.5 -32.5q-79 0 -128.5 31t-78 81t-39 114
t-10.5 129q0 62 13 122t43 107t79 76t121 29q74 0 123.5 -28.5t79 -75t41.5 -106.5t12 -124zM279 792q0 -23 -15.5 -39.5t-38.5 -16.5t-39 16.5t-16 39.5t16 39.5t39 16.5t38.5 -16.5t15.5 -39.5zM449 792q0 -23 -15.5 -39.5t-38.5 -16.5t-39 16.5t-16 39.5t16 39.5t39 16.5
t38.5 -16.5t15.5 -39.5z" />
    <glyph glyph-name="multiply" unicode="&#xd7;" horiz-adv-x="600" 
d="M491 9l-190 185l-192 -185l-48 50l190 184l-190 184l47 51l192 -186l191 185l48 -50l-189 -184l189 -184z" />
    <glyph glyph-name="Oslash" unicode="&#xd8;" horiz-adv-x="616" 
d="M480 344q0 33 -3.5 69t-14.5 70l-280 -358q20 -32 50.5 -51.5t75.5 -19.5q56 0 90 29t52 72.5t24 94t6 94.5zM435 543q-20 32 -51 51t-76 19q-53 0 -86 -26.5t-52.5 -66t-26.5 -87t-7 -89.5q0 -36 4 -77.5t16 -80.5zM520 558q24 -45 34 -100.5t10 -113.5
q0 -62 -12.5 -125t-42 -114t-79 -83.5t-122.5 -32.5q-61 0 -104.5 19.5t-72.5 51.5l-79 -101l-44 38l88 113q-26 51 -35 111t-9 123q0 62 13 122t43 107t79 76t121 29q60 0 103.5 -19.5t73.5 -51.5l79 101l44 -38z" />
    <glyph glyph-name="Ugrave" unicode="&#xd9;" horiz-adv-x="594" 
d="M513 241q0 -58 -12 -104.5t-38 -79.5t-67 -50.5t-99 -17.5q-60 0 -101.5 17.5t-67 50.5t-36.5 79.5t-11 104.5v426h80v-428q0 -32 6 -64.5t21.5 -58.5t41.5 -42t67 -16q43 0 70 16t41.5 42t19.5 58.5t5 64.5v428h80v-426zM286 724l-105 136h93l73 -136h-61z" />
    <glyph glyph-name="Uacute" unicode="&#xda;" horiz-adv-x="594" 
d="M513 241q0 -58 -12 -104.5t-38 -79.5t-67 -50.5t-99 -17.5q-60 0 -101.5 17.5t-67 50.5t-36.5 79.5t-11 104.5v426h80v-428q0 -32 6 -64.5t21.5 -58.5t41.5 -42t67 -16q43 0 70 16t41.5 42t19.5 58.5t5 64.5v428h80v-426zM308 724h-62l73 136h94z" />
    <glyph glyph-name="Ucircumflex" unicode="&#xdb;" horiz-adv-x="594" 
d="M513 241q0 -58 -12 -104.5t-38 -79.5t-67 -50.5t-99 -17.5q-60 0 -101.5 17.5t-67 50.5t-36.5 79.5t-11 104.5v426h80v-428q0 -32 6 -64.5t21.5 -58.5t41.5 -42t67 -16q43 0 70 16t41.5 42t19.5 58.5t5 64.5v428h80v-426zM375 724l-79 101l-79 -101h-60l100 136h79
l100 -136h-61z" />
    <glyph glyph-name="Udieresis" unicode="&#xdc;" horiz-adv-x="594" 
d="M513 241q0 -58 -12 -104.5t-38 -79.5t-67 -50.5t-99 -17.5q-60 0 -101.5 17.5t-67 50.5t-36.5 79.5t-11 104.5v426h80v-428q0 -32 6 -64.5t21.5 -58.5t41.5 -42t67 -16q43 0 70 16t41.5 42t19.5 58.5t5 64.5v428h80v-426zM266 792q0 -23 -15.5 -39.5t-38.5 -16.5
t-39 16.5t-16 39.5t16 39.5t39 16.5t38.5 -16.5t15.5 -39.5zM436 792q0 -23 -15.5 -39.5t-38.5 -16.5t-39 16.5t-16 39.5t16 39.5t39 16.5t38.5 -16.5t15.5 -39.5z" />
    <glyph glyph-name="Yacute" unicode="&#xdd;" horiz-adv-x="476" 
d="M278 273v-273h-80v269l-194 398h92l148 -316l142 316h86zM253 724h-62l73 136h94z" />
    <glyph glyph-name="Thorn" unicode="&#xde;" horiz-adv-x="472" 
d="M358 344q0 126 -122 126h-70v-253h56q62 0 99 28t37 99zM438 344q0 -91 -54 -142.5t-154 -51.5h-64v-150h-80v667h80v-130h79q91 0 142 -49.5t51 -143.5z" />
    <glyph glyph-name="germandbls" unicode="&#xdf;" horiz-adv-x="498" 
d="M442 198q0 -97 -40 -152t-125 -55q-14 0 -34 2.5t-41 7.5v57q16 -5 35.5 -7.5t34.5 -2.5q45 0 68 37.5t23 109.5q0 63 -22 103.5t-64 40.5h-69v57h63q20 0 35 12t25 31t15 42t5 46q0 25 -6 48.5t-18 41t-31 28t-46 10.5q-48 0 -74.5 -28t-26.5 -79v-548h-75v548
q0 36 14 66.5t37.5 52t55.5 33.5t68 12q44 0 77 -14t54.5 -38t32.5 -57.5t11 -72.5q0 -64 -30 -107.5t-81 -53.5q31 -4 55 -19.5t40.5 -38.5t25 -52t8.5 -61z" />
    <glyph glyph-name="agrave" unicode="&#xe0;" horiz-adv-x="448" 
d="M300 228q-20 6 -41.5 8t-42.5 2t-39.5 -7.5t-32.5 -20.5t-22 -31.5t-8 -39.5q0 -19 3.5 -36t12 -30t23 -21t36.5 -8q21 0 40.5 7.5t35.5 21t25.5 32t9.5 40.5v83zM312 0l-9 58q-19 -36 -55.5 -51.5t-74.5 -15.5q-73 0 -104 39t-31 108q0 39 16 67.5t42 47.5t59.5 28
t68.5 9q20 0 38.5 -2.5t37.5 -5.5v61q0 46 -21 69t-69 23q-26 0 -58.5 -5.5t-53.5 -20.5l-18 61q32 15 65.5 20t68.5 5q37 0 66.5 -7t50.5 -23.5t32 -43t11 -66.5v-267q0 -23 3 -44.5l6 -43.5h-71zM202 580l-105 136h93l73 -136h-61z" />
    <glyph glyph-name="aacute" unicode="&#xe1;" horiz-adv-x="448" 
d="M300 228q-20 6 -41.5 8t-42.5 2t-39.5 -7.5t-32.5 -20.5t-22 -31.5t-8 -39.5q0 -19 3.5 -36t12 -30t23 -21t36.5 -8q21 0 40.5 7.5t35.5 21t25.5 32t9.5 40.5v83zM312 0l-9 58q-19 -36 -55.5 -51.5t-74.5 -15.5q-73 0 -104 39t-31 108q0 39 16 67.5t42 47.5t59.5 28
t68.5 9q20 0 38.5 -2.5t37.5 -5.5v61q0 46 -21 69t-69 23q-26 0 -58.5 -5.5t-53.5 -20.5l-18 61q32 15 65.5 20t68.5 5q37 0 66.5 -7t50.5 -23.5t32 -43t11 -66.5v-267q0 -23 3 -44.5l6 -43.5h-71zM230 580h-62l73 136h94z" />
    <glyph glyph-name="acircumflex" unicode="&#xe2;" horiz-adv-x="448" 
d="M300 228q-20 6 -41.5 8t-42.5 2t-39.5 -7.5t-32.5 -20.5t-22 -31.5t-8 -39.5q0 -19 3.5 -36t12 -30t23 -21t36.5 -8q21 0 40.5 7.5t35.5 21t25.5 32t9.5 40.5v83zM312 0l-9 58q-19 -36 -55.5 -51.5t-74.5 -15.5q-73 0 -104 39t-31 108q0 39 16 67.5t42 47.5t59.5 28
t68.5 9q20 0 38.5 -2.5t37.5 -5.5v61q0 46 -21 69t-69 23q-26 0 -58.5 -5.5t-53.5 -20.5l-18 61q32 15 65.5 20t68.5 5q37 0 66.5 -7t50.5 -23.5t32 -43t11 -66.5v-267q0 -23 3 -44.5l6 -43.5h-71zM293 580l-79 101l-79 -101h-60l100 136h79l100 -136h-61z" />
    <glyph glyph-name="atilde" unicode="&#xe3;" horiz-adv-x="448" 
d="M300 228q-20 6 -41.5 8t-42.5 2t-39.5 -7.5t-32.5 -20.5t-22 -31.5t-8 -39.5q0 -19 3.5 -36t12 -30t23 -21t36.5 -8q21 0 40.5 7.5t35.5 21t25.5 32t9.5 40.5v83zM312 0l-9 58q-19 -36 -55.5 -51.5t-74.5 -15.5q-73 0 -104 39t-31 108q0 39 16 67.5t42 47.5t59.5 28
t68.5 9q20 0 38.5 -2.5t37.5 -5.5v61q0 46 -21 69t-69 23q-26 0 -58.5 -5.5t-53.5 -20.5l-18 61q32 15 65.5 20t68.5 5q37 0 66.5 -7t50.5 -23.5t32 -43t11 -66.5v-267q0 -23 3 -44.5l6 -43.5h-71zM360 702q0 -17 -7 -35t-19 -33.5t-28.5 -25.5t-35.5 -10q-18 0 -31 6.5
t-24.5 14.5t-22.5 14.5t-24 6.5q-16 0 -25.5 -15t-9.5 -31h-52q0 18 6.5 36.5t18 33.5t28 24.5t36.5 9.5q17 0 31 -6.5t26 -14.5t23 -14.5t22 -6.5q17 0 26.5 16t9.5 30h52z" />
    <glyph glyph-name="adieresis" unicode="&#xe4;" horiz-adv-x="448" 
d="M300 228q-20 6 -41.5 8t-42.5 2t-39.5 -7.5t-32.5 -20.5t-22 -31.5t-8 -39.5q0 -19 3.5 -36t12 -30t23 -21t36.5 -8q21 0 40.5 7.5t35.5 21t25.5 32t9.5 40.5v83zM312 0l-9 58q-19 -36 -55.5 -51.5t-74.5 -15.5q-73 0 -104 39t-31 108q0 39 16 67.5t42 47.5t59.5 28
t68.5 9q20 0 38.5 -2.5t37.5 -5.5v61q0 46 -21 69t-69 23q-26 0 -58.5 -5.5t-53.5 -20.5l-18 61q32 15 65.5 20t68.5 5q37 0 66.5 -7t50.5 -23.5t32 -43t11 -66.5v-267q0 -23 3 -44.5l6 -43.5h-71zM184 648q0 -23 -15.5 -39.5t-38.5 -16.5t-39 16.5t-16 39.5t16 39.5
t39 16.5t38.5 -16.5t15.5 -39.5zM354 648q0 -23 -15.5 -39.5t-38.5 -16.5t-39 16.5t-16 39.5t16 39.5t39 16.5t38.5 -16.5t15.5 -39.5z" />
    <glyph glyph-name="aring" unicode="&#xe5;" horiz-adv-x="448" 
d="M300 228q-20 6 -41.5 8t-42.5 2t-39.5 -7.5t-32.5 -20.5t-22 -31.5t-8 -39.5q0 -19 3.5 -36t12 -30t23 -21t36.5 -8q21 0 40.5 7.5t35.5 21t25.5 32t9.5 40.5v83zM312 0l-9 58q-19 -36 -55.5 -51.5t-74.5 -15.5q-73 0 -104 39t-31 108q0 39 16 67.5t42 47.5t59.5 28
t68.5 9q20 0 38.5 -2.5t37.5 -5.5v61q0 46 -21 69t-69 23q-26 0 -58.5 -5.5t-53.5 -20.5l-18 61q32 15 65.5 20t68.5 5q37 0 66.5 -7t50.5 -23.5t32 -43t11 -66.5v-267q0 -23 3 -44.5l6 -43.5h-71zM270 648q0 25 -16.5 42.5t-42.5 17.5q-24 0 -42 -17.5t-18 -42.5
q0 -26 17.5 -43t42.5 -17q26 0 42.5 17t16.5 43zM308 648q0 -40 -28.5 -65.5t-68.5 -25.5q-42 0 -69.5 25.5t-27.5 65.5t28.5 65.5t68.5 25.5q42 0 69.5 -25.5t27.5 -65.5z" />
    <glyph glyph-name="ae" unicode="&#xe6;" horiz-adv-x="690" 
d="M300 228q-20 6 -41.5 8t-42.5 2t-39.5 -7.5t-32.5 -20.5t-22 -31.5t-8 -39.5q0 -19 3.5 -36t12 -30t23 -21t36.5 -8q21 0 40.5 7.5t35.5 21t25.5 32t9.5 40.5v83zM577 282q0 26 -4 54t-15 51t-31 38t-52 15q-29 0 -48.5 -16t-31.5 -40t-17.5 -51.5t-5.5 -50.5h205z
M372 229q0 -37 6.5 -69.5t22.5 -57t43 -38.5t68 -14q25 0 51.5 5.5t49.5 15.5l18 -55q-29 -12 -68 -18.5t-70 -6.5q-61 0 -99 24.5t-62 66.5q-22 -38 -59 -64.5t-100 -26.5q-73 0 -104 39t-31 108q0 39 16 67.5t42 47.5t59.5 28t68.5 9q20 0 38.5 -2.5t37.5 -5.5v61
q0 46 -21 69t-69 23q-26 0 -58.5 -5.5t-53.5 -20.5l-18 61q32 15 65.5 20t68.5 5q31 0 54 -5.5t39.5 -14.5t27.5 -21.5t19 -25.5q16 28 49 47.5t72 19.5q49 0 82.5 -19t54 -50.5t29.5 -72.5t9 -84v-40h-278z" />
    <glyph glyph-name="ccedilla" unicode="&#xe7;" horiz-adv-x="380" 
d="M348 9q-18 -9 -38 -12.5t-39 -4.5l-42 -46q15 5 36 5q26 0 43.5 -17.5t17.5 -45.5q0 -35 -28.5 -54.5t-71.5 -19.5q-22 0 -46 3.5t-42 13.5l12 31q16 -6 31.5 -10.5t35.5 -4.5q21 0 36.5 10.5t15.5 27.5t-11.5 24.5t-25.5 7.5q-25 0 -40 -7l-11 19l53 62q-56 0 -93 22
t-58.5 58t-30 82.5t-8.5 96.5q0 48 12.5 92.5t38 78.5t64 54t89.5 20q20 0 46 -2t52 -13l-18 -59q-23 10 -43.5 12.5t-40.5 2.5q-36 0 -60 -17.5t-37.5 -44.5t-19 -60t-5.5 -64q0 -42 6 -78.5t21 -63.5t40.5 -42.5t64.5 -15.5q19 0 39 4t37 14z" />
    <glyph glyph-name="egrave" unicode="&#xe8;" horiz-adv-x="438" 
d="M325 282q0 26 -4 54t-15 51t-31 38t-52 15q-29 0 -48.5 -16t-31.5 -40t-17.5 -51.5t-5.5 -50.5h205zM120 229q0 -37 6.5 -69.5t22.5 -57t43 -38.5t68 -14q25 0 51.5 5.5t49.5 15.5l18 -55q-27 -13 -66.5 -19t-69.5 -6q-57 0 -95.5 22t-61.5 58t-32.5 82.5t-9.5 96.5
q0 42 10 85.5t31.5 79t55.5 58t82 22.5q49 0 82.5 -19t54 -50.5t29.5 -72.5t9 -84v-40h-278zM209 580l-105 136h93l73 -136h-61z" />
    <glyph glyph-name="eacute" unicode="&#xe9;" horiz-adv-x="438" 
d="M325 282q0 26 -4 54t-15 51t-31 38t-52 15q-29 0 -48.5 -16t-31.5 -40t-17.5 -51.5t-5.5 -50.5h205zM120 229q0 -37 6.5 -69.5t22.5 -57t43 -38.5t68 -14q25 0 51.5 5.5t49.5 15.5l18 -55q-27 -13 -66.5 -19t-69.5 -6q-57 0 -95.5 22t-61.5 58t-32.5 82.5t-9.5 96.5
q0 42 10 85.5t31.5 79t55.5 58t82 22.5q49 0 82.5 -19t54 -50.5t29.5 -72.5t9 -84v-40h-278zM248 580h-62l73 136h94z" />
    <glyph glyph-name="ecircumflex" unicode="&#xea;" horiz-adv-x="438" 
d="M325 282q0 26 -4 54t-15 51t-31 38t-52 15q-29 0 -48.5 -16t-31.5 -40t-17.5 -51.5t-5.5 -50.5h205zM120 229q0 -37 6.5 -69.5t22.5 -57t43 -38.5t68 -14q25 0 51.5 5.5t49.5 15.5l18 -55q-27 -13 -66.5 -19t-69.5 -6q-57 0 -95.5 22t-61.5 58t-32.5 82.5t-9.5 96.5
q0 42 10 85.5t31.5 79t55.5 58t82 22.5q49 0 82.5 -19t54 -50.5t29.5 -72.5t9 -84v-40h-278zM302 580l-79 101l-79 -101h-60l100 136h79l100 -136h-61z" />
    <glyph glyph-name="edieresis" unicode="&#xeb;" horiz-adv-x="438" 
d="M325 282q0 26 -4 54t-15 51t-31 38t-52 15q-29 0 -48.5 -16t-31.5 -40t-17.5 -51.5t-5.5 -50.5h205zM120 229q0 -37 6.5 -69.5t22.5 -57t43 -38.5t68 -14q25 0 51.5 5.5t49.5 15.5l18 -55q-27 -13 -66.5 -19t-69.5 -6q-57 0 -95.5 22t-61.5 58t-32.5 82.5t-9.5 96.5
q0 42 10 85.5t31.5 79t55.5 58t82 22.5q49 0 82.5 -19t54 -50.5t29.5 -72.5t9 -84v-40h-278zM194 648q0 -23 -15.5 -39.5t-38.5 -16.5t-39 16.5t-16 39.5t16 39.5t39 16.5t38.5 -16.5t15.5 -39.5zM364 648q0 -23 -15.5 -39.5t-38.5 -16.5t-39 16.5t-16 39.5t16 39.5t39 16.5
t38.5 -16.5t15.5 -39.5z" />
    <glyph glyph-name="igrave" unicode="&#xec;" 
d="M92 0v427h-66v59h141v-486h-75zM108 580l-105 136h93l73 -136h-61z" />
    <glyph glyph-name="iacute" unicode="&#xed;" 
d="M92 0v427h-66v59h141v-486h-75zM135 580h-62l73 136h94z" />
    <glyph glyph-name="icircumflex" unicode="&#xee;" 
d="M92 0v427h-66v59h141v-486h-75zM190 580l-79 101l-79 -101h-60l100 136h79l100 -136h-61z" />
    <glyph glyph-name="idieresis" unicode="&#xef;" 
d="M92 0v427h-66v59h141v-486h-75zM83 648q0 -23 -15.5 -39.5t-38.5 -16.5t-39 16.5t-16 39.5t16 39.5t39 16.5t38.5 -16.5t15.5 -39.5zM253 648q0 -23 -15.5 -39.5t-38.5 -16.5t-39 16.5t-16 39.5t16 39.5t39 16.5t38.5 -16.5t15.5 -39.5z" />
    <glyph glyph-name="eth" unicode="&#xf0;" horiz-adv-x="466" 
d="M344 250q0 27 -3.5 59.5t-15.5 61t-34 48t-58 19.5t-58 -19.5t-34 -48t-15.5 -61t-3.5 -59.5t3.5 -62t14.5 -66t33 -52.5t60 -21.5q37 0 59.5 21.5t33.5 52.5t14.5 66t3.5 62zM422 250q0 -49 -9.5 -95.5t-31.5 -83t-58 -58.5t-90 -22q-55 0 -91.5 21.5t-58 57.5
t-30.5 82.5t-9 97.5q0 46 11.5 90t34.5 78.5t59 55.5t84 21q19 0 34 -5.5t25.5 -13t17.5 -16.5t11 -16q-3 20 -9 44t-15 47t-22 42.5t-29 30.5l-103 -60l-41 39l91 53q-23 14 -52 29t-57 24l56 38q32 -10 62.5 -23t55.5 -30l91 53l40 -38l-83 -48q34 -28 56.5 -74.5
t35.5 -101.5t18.5 -112.5t5.5 -106.5z" />
    <glyph glyph-name="ntilde" unicode="&#xf1;" horiz-adv-x="492" 
d="M343 0v340q0 42 -23 70t-68 28q-25 0 -44 -11t-32 -29t-20 -40.5t-7 -44.5v-313h-75v486h66l9 -67q8 18 22 32t31.5 23.5t37 15t38.5 5.5q35 0 61.5 -12t44 -33.5t26 -50t8.5 -61.5v-338h-75zM387 702q0 -17 -7 -35t-19 -33.5t-28.5 -25.5t-35.5 -10q-18 0 -31 6.5
t-24.5 14.5t-22.5 14.5t-24 6.5q-16 0 -25.5 -15t-9.5 -31h-52q0 18 6.5 36.5t18 33.5t28 24.5t36.5 9.5q17 0 31 -6.5t26 -14.5t23 -14.5t22 -6.5q17 0 26.5 16t9.5 30h52z" />
    <glyph glyph-name="ograve" unicode="&#xf2;" horiz-adv-x="466" 
d="M344 250q0 27 -3.5 59.5t-15.5 61t-34 48t-58 19.5t-58 -19.5t-34 -48t-15.5 -61t-3.5 -59.5t3.5 -62t14.5 -66t33 -52.5t60 -21.5q37 0 59.5 21.5t33.5 52.5t14.5 66t3.5 62zM422 250q0 -49 -9.5 -95.5t-31.5 -83t-58 -58.5t-90 -22q-55 0 -91.5 21.5t-58 57.5
t-30.5 82.5t-9 97.5q0 46 11.5 90t34.5 78.5t59 55.5t84 21q52 0 88 -20.5t58.5 -54.5t32.5 -78t10 -92zM214 580l-105 136h93l73 -136h-61z" />
    <glyph glyph-name="oacute" unicode="&#xf3;" horiz-adv-x="466" 
d="M344 250q0 27 -3.5 59.5t-15.5 61t-34 48t-58 19.5t-58 -19.5t-34 -48t-15.5 -61t-3.5 -59.5t3.5 -62t14.5 -66t33 -52.5t60 -21.5q37 0 59.5 21.5t33.5 52.5t14.5 66t3.5 62zM422 250q0 -49 -9.5 -95.5t-31.5 -83t-58 -58.5t-90 -22q-55 0 -91.5 21.5t-58 57.5
t-30.5 82.5t-9 97.5q0 46 11.5 90t34.5 78.5t59 55.5t84 21q52 0 88 -20.5t58.5 -54.5t32.5 -78t10 -92zM252 580h-62l73 136h94z" />
    <glyph glyph-name="ocircumflex" unicode="&#xf4;" horiz-adv-x="466" 
d="M344 250q0 27 -3.5 59.5t-15.5 61t-34 48t-58 19.5t-58 -19.5t-34 -48t-15.5 -61t-3.5 -59.5t3.5 -62t14.5 -66t33 -52.5t60 -21.5q37 0 59.5 21.5t33.5 52.5t14.5 66t3.5 62zM422 250q0 -49 -9.5 -95.5t-31.5 -83t-58 -58.5t-90 -22q-55 0 -91.5 21.5t-58 57.5
t-30.5 82.5t-9 97.5q0 46 11.5 90t34.5 78.5t59 55.5t84 21q52 0 88 -20.5t58.5 -54.5t32.5 -78t10 -92zM311 580l-79 101l-79 -101h-60l100 136h79l100 -136h-61z" />
    <glyph glyph-name="otilde" unicode="&#xf5;" horiz-adv-x="466" 
d="M344 250q0 27 -3.5 59.5t-15.5 61t-34 48t-58 19.5t-58 -19.5t-34 -48t-15.5 -61t-3.5 -59.5t3.5 -62t14.5 -66t33 -52.5t60 -21.5q37 0 59.5 21.5t33.5 52.5t14.5 66t3.5 62zM422 250q0 -49 -9.5 -95.5t-31.5 -83t-58 -58.5t-90 -22q-55 0 -91.5 21.5t-58 57.5
t-30.5 82.5t-9 97.5q0 46 11.5 90t34.5 78.5t59 55.5t84 21q52 0 88 -20.5t58.5 -54.5t32.5 -78t10 -92zM373 702q0 -17 -7 -35t-19 -33.5t-28.5 -25.5t-35.5 -10q-18 0 -31 6.5t-24.5 14.5t-22.5 14.5t-24 6.5q-16 0 -25.5 -15t-9.5 -31h-52q0 18 6.5 36.5t18 33.5t28 24.5
t36.5 9.5q17 0 31 -6.5t26 -14.5t23 -14.5t22 -6.5q17 0 26.5 16t9.5 30h52z" />
    <glyph glyph-name="odieresis" unicode="&#xf6;" horiz-adv-x="466" 
d="M344 250q0 27 -3.5 59.5t-15.5 61t-34 48t-58 19.5t-58 -19.5t-34 -48t-15.5 -61t-3.5 -59.5t3.5 -62t14.5 -66t33 -52.5t60 -21.5q37 0 59.5 21.5t33.5 52.5t14.5 66t3.5 62zM422 250q0 -49 -9.5 -95.5t-31.5 -83t-58 -58.5t-90 -22q-55 0 -91.5 21.5t-58 57.5
t-30.5 82.5t-9 97.5q0 46 11.5 90t34.5 78.5t59 55.5t84 21q52 0 88 -20.5t58.5 -54.5t32.5 -78t10 -92zM202 648q0 -23 -15.5 -39.5t-38.5 -16.5t-39 16.5t-16 39.5t16 39.5t39 16.5t38.5 -16.5t15.5 -39.5zM372 648q0 -23 -15.5 -39.5t-38.5 -16.5t-39 16.5t-16 39.5
t16 39.5t39 16.5t38.5 -16.5t15.5 -39.5z" />
    <glyph glyph-name="divide" unicode="&#xf7;" horiz-adv-x="600" 
d="M356 57q0 -23 -16.5 -40t-39.5 -17t-39 17t-16 40t16 39.5t39 16.5t39.5 -16.5t16.5 -39.5zM45 210v66h510v-66h-510zM356 429q0 -23 -16.5 -39.5t-39.5 -16.5t-39 16.5t-16 39.5t16 40t39 17t39.5 -17t16.5 -40z" />
    <glyph glyph-name="oslash" unicode="&#xf8;" horiz-adv-x="466" 
d="M344 250q0 20 -2 42t-7 45l-184 -240q13 -22 32.5 -35.5t49.5 -13.5q37 0 59.5 21.5t33.5 52.5t14.5 66t3.5 62zM315 391q-13 21 -32.5 34t-49.5 13q-36 0 -58 -19.5t-34 -48t-15.5 -61t-3.5 -59.5q0 -21 1.5 -46.5t7.5 -51.5zM388 406q18 -33 26 -73t8 -83
q0 -49 -9.5 -95.5t-31.5 -83t-58 -58.5t-90 -22q-42 0 -73 12.5t-53 35.5l-58 -75l-37 32l65 85q-18 35 -25.5 78t-7.5 91q0 46 11.5 90t34.5 78.5t59 55.5t84 21q42 0 72.5 -12.5t52.5 -35.5l59 77l37 -32z" />
    <glyph glyph-name="ugrave" unicode="&#xf9;" horiz-adv-x="484" 
d="M345 0l-9 65q-8 -18 -22 -32t-31.5 -23t-36.5 -14t-37 -5q-38 0 -64 12t-42 33t-23.5 49.5t-7.5 60.5v340h74v-334q0 -51 21.5 -77.5t64.5 -26.5q27 0 46 13.5t32 33.5t19 42.5t6 41.5v307h75v-486h-65zM225 580l-105 136h93l73 -136h-61z" />
    <glyph glyph-name="uacute" unicode="&#xfa;" horiz-adv-x="484" 
d="M345 0l-9 65q-8 -18 -22 -32t-31.5 -23t-36.5 -14t-37 -5q-38 0 -64 12t-42 33t-23.5 49.5t-7.5 60.5v340h74v-334q0 -51 21.5 -77.5t64.5 -26.5q27 0 46 13.5t32 33.5t19 42.5t6 41.5v307h75v-486h-65zM257 580h-62l73 136h94z" />
    <glyph glyph-name="ucircumflex" unicode="&#xfb;" horiz-adv-x="484" 
d="M345 0l-9 65q-8 -18 -22 -32t-31.5 -23t-36.5 -14t-37 -5q-38 0 -64 12t-42 33t-23.5 49.5t-7.5 60.5v340h74v-334q0 -51 21.5 -77.5t64.5 -26.5q27 0 46 13.5t32 33.5t19 42.5t6 41.5v307h75v-486h-65zM324 580l-79 101l-79 -101h-60l100 136h79l100 -136h-61z" />
    <glyph glyph-name="udieresis" unicode="&#xfc;" horiz-adv-x="484" 
d="M345 0l-9 65q-8 -18 -22 -32t-31.5 -23t-36.5 -14t-37 -5q-38 0 -64 12t-42 33t-23.5 49.5t-7.5 60.5v340h74v-334q0 -51 21.5 -77.5t64.5 -26.5q27 0 46 13.5t32 33.5t19 42.5t6 41.5v307h75v-486h-65zM210 648q0 -23 -15.5 -39.5t-38.5 -16.5t-39 16.5t-16 39.5
t16 39.5t39 16.5t38.5 -16.5t15.5 -39.5zM380 648q0 -23 -15.5 -39.5t-38.5 -16.5t-39 16.5t-16 39.5t16 39.5t39 16.5t38.5 -16.5t15.5 -39.5z" />
    <glyph glyph-name="yacute" unicode="&#xfd;" horiz-adv-x="404" 
d="M12 486h83l106 -389l114 389h77l-159 -486l-17 -50q-12 -35 -23.5 -62.5t-26 -46.5t-34 -29t-47.5 -10q-14 0 -27.5 1t-28.5 6l17 66q9 -3 14 -4t13 -1q30 0 45.5 17t26.5 55l17 58zM224 580h-62l73 136h94z" />
    <glyph glyph-name="thorn" unicode="&#xfe;" horiz-adv-x="486" 
d="M364 250q0 27 -3.5 59.5t-15 61t-33.5 48t-59 19.5q-27 0 -46.5 -11.5t-32.5 -30t-19.5 -43t-6.5 -49.5v-118q0 -30 7 -55t20.5 -43.5t32.5 -29t43 -10.5q34 0 55.5 20.5t34.5 50.5t18 65.5t5 65.5zM442 250q0 -48 -10.5 -94.5t-32.5 -83t-56 -59t-82 -22.5q-38 0 -67 18
t-45 47v-254h-75v910h75v-287q18 32 49.5 51t74.5 19q45 0 77 -19.5t52.5 -52.5t30 -77.5t9.5 -95.5z" />
    <glyph glyph-name="ydieresis" unicode="&#xff;" horiz-adv-x="404" 
d="M12 486h83l106 -389l114 389h77l-159 -486l-17 -50q-12 -35 -23.5 -62.5t-26 -46.5t-34 -29t-47.5 -10q-14 0 -27.5 1t-28.5 6l17 66q9 -3 14 -4t13 -1q30 0 45.5 17t26.5 55l17 58zM172 648q0 -23 -15.5 -39.5t-38.5 -16.5t-39 16.5t-16 39.5t16 39.5t39 16.5
t38.5 -16.5t15.5 -39.5zM342 648q0 -23 -15.5 -39.5t-38.5 -16.5t-39 16.5t-16 39.5t16 39.5t39 16.5t38.5 -16.5t15.5 -39.5z" />
    <glyph glyph-name=".null" horiz-adv-x="500" 
 />
    <glyph glyph-name="Amacron" unicode="&#x100;" horiz-adv-x="509" 
d="M252 612l-92 -358h187zM414 0l-51 192h-219l-49 -192h-82l183 667h117l183 -667h-82zM131 766v52h241v-52h-241z" />
    <glyph glyph-name="amacron" unicode="&#x101;" horiz-adv-x="448" 
d="M300 228q-20 6 -41.5 8t-42.5 2t-39.5 -7.5t-32.5 -20.5t-22 -31.5t-8 -39.5q0 -19 3.5 -36t12 -30t23 -21t36.5 -8q21 0 40.5 7.5t35.5 21t25.5 32t9.5 40.5v83zM312 0l-9 58q-19 -36 -55.5 -51.5t-74.5 -15.5q-73 0 -104 39t-31 108q0 39 16 67.5t42 47.5t59.5 28
t68.5 9q20 0 38.5 -2.5t37.5 -5.5v61q0 46 -21 69t-69 23q-26 0 -58.5 -5.5t-53.5 -20.5l-18 61q32 15 65.5 20t68.5 5q37 0 66.5 -7t50.5 -23.5t32 -43t11 -66.5v-267q0 -23 3 -44.5l6 -43.5h-71zM108 622v52h241v-52h-241z" />
    <glyph glyph-name="Abreve" unicode="&#x102;" horiz-adv-x="509" 
d="M252 612l-92 -358h187zM414 0l-51 192h-219l-49 -192h-82l183 667h117l183 -667h-82zM374 854q0 -14 -6 -35t-20 -41t-37.5 -34t-57.5 -14q-35 0 -58.5 14t-37.5 33.5t-20 41t-6 35.5h41q3 -31 24.5 -52.5t56.5 -21.5t56 21.5t24 52.5h41z" />
    <glyph glyph-name="abreve" unicode="&#x103;" horiz-adv-x="448" 
d="M300 228q-20 6 -41.5 8t-42.5 2t-39.5 -7.5t-32.5 -20.5t-22 -31.5t-8 -39.5q0 -19 3.5 -36t12 -30t23 -21t36.5 -8q21 0 40.5 7.5t35.5 21t25.5 32t9.5 40.5v83zM312 0l-9 58q-19 -36 -55.5 -51.5t-74.5 -15.5q-73 0 -104 39t-31 108q0 39 16 67.5t42 47.5t59.5 28
t68.5 9q20 0 38.5 -2.5t37.5 -5.5v61q0 46 -21 69t-69 23q-26 0 -58.5 -5.5t-53.5 -20.5l-18 61q32 15 65.5 20t68.5 5q37 0 66.5 -7t50.5 -23.5t32 -43t11 -66.5v-267q0 -23 3 -44.5l6 -43.5h-71zM350 710q0 -14 -6 -35t-20 -41t-37.5 -34t-57.5 -14q-35 0 -58.5 14
t-37.5 33.5t-20 41t-6 35.5h41q3 -31 24.5 -52.5t56.5 -21.5t56 21.5t24 52.5h41z" />
    <glyph glyph-name="Aogonek" unicode="&#x104;" horiz-adv-x="509" 
d="M503 -169q-18 -8 -35 -12.5t-37 -4.5q-40 0 -65.5 21.5t-25.5 58.5q0 34 24.5 60t70.5 46h-21l-51 192h-219l-49 -192h-82l183 667h117l183 -667h-22q-35 -22 -55.5 -45.5t-20.5 -55.5q0 -26 14.5 -39t31.5 -13q13 0 26 5t21 10zM252 612l-92 -358h187z" />
    <glyph glyph-name="aogonek" unicode="&#x105;" horiz-adv-x="448" 
d="M398 -169q-18 -8 -35 -12.5t-37 -4.5q-40 0 -65.5 21.5t-25.5 58.5q0 34 24.5 60t70.5 46h-18l-9 58q-19 -36 -55.5 -51.5t-74.5 -15.5q-73 0 -104 39t-31 108q0 39 16 67.5t42 47.5t59.5 28t68.5 9q20 0 38.5 -2.5t37.5 -5.5v61q0 46 -21 69t-69 23q-26 0 -58.5 -5.5
t-53.5 -20.5l-18 61q32 15 65.5 20t68.5 5q37 0 66.5 -7t50.5 -23.5t32 -43t11 -66.5v-267q0 -23 3 -44.5l6 -43.5h-14q-35 -22 -55.5 -45.5t-20.5 -55.5q0 -26 14.5 -39t31.5 -13q13 0 26 5t21 10zM300 228q-20 6 -41.5 8t-42.5 2t-39.5 -7.5t-32.5 -20.5t-22 -31.5
t-8 -39.5q0 -19 3.5 -36t12 -30t23 -21t36.5 -8q21 0 40.5 7.5t35.5 21t25.5 32t9.5 40.5v83z" />
    <glyph glyph-name="Cacute" unicode="&#x106;" horiz-adv-x="495" 
d="M446 597q-45 14 -87 14q-60 0 -102.5 -21t-69 -57.5t-39 -85t-12.5 -103.5q0 -60 9 -112.5t33.5 -91.5t68.5 -61.5t114 -22.5q45 0 87 15v-70q-23 -7 -49.5 -9.5t-49.5 -2.5q-84 0 -141 24.5t-91.5 70.5t-49.5 111.5t-15 148.5q0 72 21.5 133t61.5 105.5t96.5 70
t127.5 25.5q24 0 52 -3t52 -11zM336 724h-62l73 136h94z" />
    <glyph glyph-name="cacute" unicode="&#x107;" horiz-adv-x="380" 
d="M348 9q-27 -14 -58 -16t-54 -2q-57 0 -94 21.5t-58.5 57.5t-30.5 83t-9 97q0 48 12.5 92.5t38 78.5t64 54t89.5 20q20 0 46 -2t52 -13l-18 -59q-23 10 -43.5 12.5t-40.5 2.5q-36 0 -60 -17.5t-37.5 -44.5t-19 -60t-5.5 -64q0 -42 6 -78.5t21 -63.5t40.5 -42.5t64.5 -15.5
q19 0 39 4t37 14zM240 580h-62l73 136h94z" />
    <glyph glyph-name="Ccircumflex" unicode="&#x108;" horiz-adv-x="495" 
d="M446 597q-45 14 -87 14q-60 0 -102.5 -21t-69 -57.5t-39 -85t-12.5 -103.5q0 -60 9 -112.5t33.5 -91.5t68.5 -61.5t114 -22.5q45 0 87 15v-70q-23 -7 -49.5 -9.5t-49.5 -2.5q-84 0 -141 24.5t-91.5 70.5t-49.5 111.5t-15 148.5q0 72 21.5 133t61.5 105.5t96.5 70
t127.5 25.5q24 0 52 -3t52 -11zM399 724l-79 101l-79 -101h-60l100 136h79l100 -136h-61z" />
    <glyph glyph-name="ccircumflex" unicode="&#x109;" horiz-adv-x="380" 
d="M348 9q-27 -14 -58 -16t-54 -2q-57 0 -94 21.5t-58.5 57.5t-30.5 83t-9 97q0 48 12.5 92.5t38 78.5t64 54t89.5 20q20 0 46 -2t52 -13l-18 -59q-23 10 -43.5 12.5t-40.5 2.5q-36 0 -60 -17.5t-37.5 -44.5t-19 -60t-5.5 -64q0 -42 6 -78.5t21 -63.5t40.5 -42.5t64.5 -15.5
q19 0 39 4t37 14zM312 580l-79 101l-79 -101h-60l100 136h79l100 -136h-61z" />
    <glyph glyph-name="Cdotaccent" unicode="&#x10a;" horiz-adv-x="495" 
d="M446 597q-45 14 -87 14q-60 0 -102.5 -21t-69 -57.5t-39 -85t-12.5 -103.5q0 -60 9 -112.5t33.5 -91.5t68.5 -61.5t114 -22.5q45 0 87 15v-70q-23 -7 -49.5 -9.5t-49.5 -2.5q-84 0 -141 24.5t-91.5 70.5t-49.5 111.5t-15 148.5q0 72 21.5 133t61.5 105.5t96.5 70
t127.5 25.5q24 0 52 -3t52 -11zM374 792q0 -20 -15 -35t-36 -15t-36 15t-15 35t15 35t36 15t36 -15t15 -35z" />
    <glyph glyph-name="cdotaccent" unicode="&#x10b;" horiz-adv-x="380" 
d="M348 9q-27 -14 -58 -16t-54 -2q-57 0 -94 21.5t-58.5 57.5t-30.5 83t-9 97q0 48 12.5 92.5t38 78.5t64 54t89.5 20q20 0 46 -2t52 -13l-18 -59q-23 10 -43.5 12.5t-40.5 2.5q-36 0 -60 -17.5t-37.5 -44.5t-19 -60t-5.5 -64q0 -42 6 -78.5t21 -63.5t40.5 -42.5t64.5 -15.5
q19 0 39 4t37 14zM283 648q0 -20 -15 -35t-36 -15t-36 15t-15 35t15 35t36 15t36 -15t15 -35z" />
    <glyph glyph-name="Ccaron" unicode="&#x10c;" horiz-adv-x="495" 
d="M446 597q-45 14 -87 14q-60 0 -102.5 -21t-69 -57.5t-39 -85t-12.5 -103.5q0 -60 9 -112.5t33.5 -91.5t68.5 -61.5t114 -22.5q45 0 87 15v-70q-23 -7 -49.5 -9.5t-49.5 -2.5q-84 0 -141 24.5t-91.5 70.5t-49.5 111.5t-15 148.5q0 72 21.5 133t61.5 105.5t96.5 70
t127.5 25.5q24 0 52 -3t52 -11zM360 724h-79l-100 136h64l79 -101l79 101h57z" />
    <glyph glyph-name="ccaron" unicode="&#x10d;" horiz-adv-x="380" 
d="M348 9q-27 -14 -58 -16t-54 -2q-57 0 -94 21.5t-58.5 57.5t-30.5 83t-9 97q0 48 12.5 92.5t38 78.5t64 54t89.5 20q20 0 46 -2t52 -13l-18 -59q-23 10 -43.5 12.5t-40.5 2.5q-36 0 -60 -17.5t-37.5 -44.5t-19 -60t-5.5 -64q0 -42 6 -78.5t21 -63.5t40.5 -42.5t64.5 -15.5
q19 0 39 4t37 14zM279 580h-79l-100 136h64l79 -101l79 101h57z" />
    <glyph glyph-name="Dcaron" unicode="&#x10e;" horiz-adv-x="582" 
d="M446 344q0 49 -9.5 95t-33 81.5t-61.5 56.5t-95 21h-81v-529h93q57 0 93.5 26.5t57 67t28.5 89t8 92.5zM530 344q0 -72 -14.5 -135t-46.5 -109.5t-83.5 -73t-126.5 -26.5h-173v667h184q72 0 121.5 -24.5t80 -68t44.5 -102.5t14 -128zM305 724h-79l-100 136h64l79 -101
l79 101h57z" />
    <glyph glyph-name="dcaron" unicode="&#x10f;" horiz-adv-x="486" 
d="M338 304q0 28 -7 52.5t-20.5 42.5t-33.5 28.5t-45 10.5q-32 0 -53 -17.5t-34 -44.5t-18 -59.5t-5 -62.5q0 -42 4.5 -79.5t16.5 -65.5t33 -44.5t53 -16.5q22 0 41.5 10t34.5 28t24 43.5t9 55.5v119zM346 0l-9 64q-17 -34 -48 -53.5t-82 -19.5q-46 0 -77 21t-50 56.5
t-27.5 82.5t-8.5 99q0 51 12 96t35 78t58 52t80 19q37 0 66.5 -18t41.5 -46v281h75v-712h-66zM491 543l-46 12l57 160l64 -16z" />
    <glyph glyph-name="Dcroat" unicode="&#x110;" horiz-adv-x="582" 
d="M446 344q0 49 -9.5 95t-33 81.5t-61.5 56.5t-95 21h-81v-222h124v-76h-124v-231h93q57 0 93.5 26.5t57 67t28.5 89t8 92.5zM530 344q0 -72 -14.5 -135t-46.5 -109.5t-83.5 -73t-126.5 -26.5h-173v300h-72v76h72v291h184q72 0 121.5 -24.5t80 -68t44.5 -102.5t14 -128z
" />
    <glyph glyph-name="dcroat" unicode="&#x111;" horiz-adv-x="486" 
d="M240 560v52h97v100h75v-100h69v-52h-69v-560h-66l-9 64q-17 -34 -48 -53.5t-82 -19.5q-46 0 -77 21t-50 56.5t-27.5 82.5t-8.5 99q0 51 12 96t35 78t58 52t80 19q37 0 66.5 -18t41.5 -46v129h-97zM338 304q0 28 -7 52.5t-20.5 42.5t-33.5 28.5t-45 10.5q-32 0 -53 -17.5
t-34 -44.5t-18 -59.5t-5 -62.5q0 -42 4.5 -79.5t16.5 -65.5t33 -44.5t53 -16.5q22 0 41.5 10t34.5 28t24 43.5t9 55.5v119z" />
    <glyph glyph-name="Emacron" unicode="&#x112;" horiz-adv-x="453" 
d="M86 0v667h310v-68h-229v-221h211v-67h-211v-242h241v-69h-322zM125 766v52h241v-52h-241z" />
    <glyph glyph-name="emacron" unicode="&#x113;" horiz-adv-x="438" 
d="M325 282q0 26 -4 54t-15 51t-31 38t-52 15q-29 0 -48.5 -16t-31.5 -40t-17.5 -51.5t-5.5 -50.5h205zM120 229q0 -37 6.5 -69.5t22.5 -57t43 -38.5t68 -14q25 0 51.5 5.5t49.5 15.5l18 -55q-27 -13 -66.5 -19t-69.5 -6q-57 0 -95.5 22t-61.5 58t-32.5 82.5t-9.5 96.5
q0 42 10 85.5t31.5 79t55.5 58t82 22.5q49 0 82.5 -19t54 -50.5t29.5 -72.5t9 -84v-40h-278zM101 622v52h241v-52h-241z" />
    <glyph glyph-name="Ebreve" unicode="&#x114;" horiz-adv-x="453" 
d="M86 0v667h310v-68h-229v-221h211v-67h-211v-242h241v-69h-322zM369 854q0 -14 -6 -35t-20 -41t-37.5 -34t-57.5 -14q-35 0 -58.5 14t-37.5 33.5t-20 41t-6 35.5h41q3 -31 24.5 -52.5t56.5 -21.5t56 21.5t24 52.5h41z" />
    <glyph glyph-name="ebreve" unicode="&#x115;" horiz-adv-x="438" 
d="M325 282q0 26 -4 54t-15 51t-31 38t-52 15q-29 0 -48.5 -16t-31.5 -40t-17.5 -51.5t-5.5 -50.5h205zM120 229q0 -37 6.5 -69.5t22.5 -57t43 -38.5t68 -14q25 0 51.5 5.5t49.5 15.5l18 -55q-27 -13 -66.5 -19t-69.5 -6q-57 0 -95.5 22t-61.5 58t-32.5 82.5t-9.5 96.5
q0 42 10 85.5t31.5 79t55.5 58t82 22.5q49 0 82.5 -19t54 -50.5t29.5 -72.5t9 -84v-40h-278zM348 710q0 -14 -6 -35t-20 -41t-37.5 -34t-57.5 -14q-35 0 -58.5 14t-37.5 33.5t-20 41t-6 35.5h41q3 -31 24.5 -52.5t56.5 -21.5t56 21.5t24 52.5h41z" />
    <glyph glyph-name="Edotaccent" unicode="&#x116;" horiz-adv-x="453" 
d="M86 0v667h310v-68h-229v-221h211v-67h-211v-242h241v-69h-322zM297 792q0 -20 -15 -35t-36 -15t-36 15t-15 35t15 35t36 15t36 -15t15 -35z" />
    <glyph glyph-name="edotaccent" unicode="&#x117;" horiz-adv-x="438" 
d="M325 282q0 26 -4 54t-15 51t-31 38t-52 15q-29 0 -48.5 -16t-31.5 -40t-17.5 -51.5t-5.5 -50.5h205zM120 229q0 -37 6.5 -69.5t22.5 -57t43 -38.5t68 -14q25 0 51.5 5.5t49.5 15.5l18 -55q-27 -13 -66.5 -19t-69.5 -6q-57 0 -95.5 22t-61.5 58t-32.5 82.5t-9.5 96.5
q0 42 10 85.5t31.5 79t55.5 58t82 22.5q49 0 82.5 -19t54 -50.5t29.5 -72.5t9 -84v-40h-278zM279 648q0 -20 -15 -35t-36 -15t-36 15t-15 35t15 35t36 15t36 -15t15 -35z" />
    <glyph glyph-name="Eogonek" unicode="&#x118;" horiz-adv-x="453" 
d="M400 -169q-18 -8 -35 -12.5t-37 -4.5q-40 0 -65.5 21.5t-25.5 58.5q0 34 24.5 60t70.5 46h-246v667h310v-68h-229v-221h211v-67h-211v-242h241v-69h-37q-35 -22 -55.5 -45.5t-20.5 -55.5q0 -26 14.5 -39t31.5 -13q13 0 26 5t21 10z" />
    <glyph glyph-name="eogonek" unicode="&#x119;" horiz-adv-x="438" 
d="M323 -169q-18 -8 -35 -12.5t-37 -4.5q-40 0 -65.5 21.5t-25.5 58.5q0 34 24 60q19 20 51 37q-52 2 -88 22q-38 22 -61 58t-32.5 82.5t-9.5 96.5q0 42 10 85.5t31.5 79t55.5 58t82 22.5q49 0 82.5 -19t54 -50.5t29.5 -72.5t9 -84v-40h-278q0 -37 6.5 -69.5t22.5 -57
t43 -38.5t68 -14q25 0 51.5 5.5t49.5 15.5l18 -55q-27 -13 -67 -19l-29 -4q-28 -19 -45 -38q-20 -24 -20 -56q0 -26 14.5 -39t31.5 -13q13 0 26 5t21 10zM325 282q0 26 -4 54t-15 51t-31 38t-52 15q-29 0 -48.5 -16t-31.5 -40t-17.5 -51.5t-5.5 -50.5h205z" />
    <glyph glyph-name="Ecaron" unicode="&#x11a;" horiz-adv-x="453" 
d="M86 0v667h310v-68h-229v-221h211v-67h-211v-242h241v-69h-322zM288 724h-79l-100 136h64l79 -101l79 101h57z" />
    <glyph glyph-name="ecaron" unicode="&#x11b;" horiz-adv-x="438" 
d="M325 282q0 26 -4 54t-15 51t-31 38t-52 15q-29 0 -48.5 -16t-31.5 -40t-17.5 -51.5t-5.5 -50.5h205zM120 229q0 -37 6.5 -69.5t22.5 -57t43 -38.5t68 -14q25 0 51.5 5.5t49.5 15.5l18 -55q-27 -13 -66.5 -19t-69.5 -6q-57 0 -95.5 22t-61.5 58t-32.5 82.5t-9.5 96.5
q0 42 10 85.5t31.5 79t55.5 58t82 22.5q49 0 82.5 -19t54 -50.5t29.5 -72.5t9 -84v-40h-278zM262 580h-79l-100 136h64l79 -101l79 101h57z" />
    <glyph glyph-name="Gcircumflex" unicode="&#x11c;" horiz-adv-x="572" 
d="M511 22q-36 -18 -77 -25.5t-83 -7.5q-80 0 -136.5 26.5t-92.5 73.5t-53 112t-17 143q0 73 22 134t63 105.5t99 69.5t129 25q34 0 68.5 -4t66.5 -16l-15 -68q-29 11 -59.5 16t-60.5 5q-60 0 -103 -21t-71 -57t-41.5 -85t-13.5 -104q0 -57 11 -109.5t37 -93t70 -64.5
t109 -24q17 0 34.5 3.5t37.5 13.5v225h-103v65h179v-338zM419 724l-79 101l-79 -101h-60l100 136h79l100 -136h-61z" />
    <glyph glyph-name="gcircumflex" unicode="&#x11d;" horiz-adv-x="486" 
d="M338 303q0 28 -6.5 52.5t-19.5 43t-32.5 29t-44.5 10.5q-32 0 -54 -18t-35 -45.5t-18.5 -60.5t-5.5 -62q0 -38 4.5 -73.5t17 -62.5t34 -43t54.5 -16q22 0 41 10t33.5 28t23 43t8.5 55v110zM412 -5q0 -40 -14 -75t-41 -61.5t-68 -41.5t-95 -15q-39 0 -66.5 5.5t-59.5 16.5
l15 62q30 -14 55.5 -19.5t58.5 -5.5q37 0 64 11.5t43.5 30t24.5 42t8 47.5v86q-17 -33 -46 -55.5t-81 -22.5q-47 0 -78.5 19.5t-51 53t-28 79t-8.5 98.5q0 51 12 96t36 78t59 52t80 19q38 0 66 -19t40 -47l9 57h66v-491zM324 580l-79 101l-79 -101h-60l100 136h79l100 -136
h-61z" />
    <glyph glyph-name="Gbreve" unicode="&#x11e;" horiz-adv-x="572" 
d="M511 22q-36 -18 -77 -25.5t-83 -7.5q-80 0 -136.5 26.5t-92.5 73.5t-53 112t-17 143q0 73 22 134t63 105.5t99 69.5t129 25q34 0 68.5 -4t66.5 -16l-15 -68q-29 11 -59.5 16t-60.5 5q-60 0 -103 -21t-71 -57t-41.5 -85t-13.5 -104q0 -57 11 -109.5t37 -93t70 -64.5
t109 -24q17 0 34.5 3.5t37.5 13.5v225h-103v65h179v-338zM455 854q0 -14 -6 -35t-20 -41t-37.5 -34t-57.5 -14q-35 0 -58.5 14t-37.5 33.5t-20 41t-6 35.5h41q3 -31 24.5 -52.5t56.5 -21.5t56 21.5t24 52.5h41z" />
    <glyph glyph-name="gbreve" unicode="&#x11f;" horiz-adv-x="486" 
d="M338 303q0 28 -6.5 52.5t-19.5 43t-32.5 29t-44.5 10.5q-32 0 -54 -18t-35 -45.5t-18.5 -60.5t-5.5 -62q0 -38 4.5 -73.5t17 -62.5t34 -43t54.5 -16q22 0 41 10t33.5 28t23 43t8.5 55v110zM412 -5q0 -40 -14 -75t-41 -61.5t-68 -41.5t-95 -15q-39 0 -66.5 5.5t-59.5 16.5
l15 62q30 -14 55.5 -19.5t58.5 -5.5q37 0 64 11.5t43.5 30t24.5 42t8 47.5v86q-17 -33 -46 -55.5t-81 -22.5q-47 0 -78.5 19.5t-51 53t-28 79t-8.5 98.5q0 51 12 96t36 78t59 52t80 19q38 0 66 -19t40 -47l9 57h66v-491zM369 710q0 -14 -6 -35t-20 -41t-37.5 -34t-57.5 -14
q-35 0 -58.5 14t-37.5 33.5t-20 41t-6 35.5h41q3 -31 24.5 -52.5t56.5 -21.5t56 21.5t24 52.5h41z" />
    <glyph glyph-name="Gdotaccent" unicode="&#x120;" horiz-adv-x="572" 
d="M511 22q-36 -18 -77 -25.5t-83 -7.5q-80 0 -136.5 26.5t-92.5 73.5t-53 112t-17 143q0 73 22 134t63 105.5t99 69.5t129 25q34 0 68.5 -4t66.5 -16l-15 -68q-29 11 -59.5 16t-60.5 5q-60 0 -103 -21t-71 -57t-41.5 -85t-13.5 -104q0 -57 11 -109.5t37 -93t70 -64.5
t109 -24q17 0 34.5 3.5t37.5 13.5v225h-103v65h179v-338zM389 792q0 -20 -15 -35t-36 -15t-36 15t-15 35t15 35t36 15t36 -15t15 -35z" />
    <glyph glyph-name="gdotaccent" unicode="&#x121;" horiz-adv-x="486" 
d="M338 303q0 28 -6.5 52.5t-19.5 43t-32.5 29t-44.5 10.5q-32 0 -54 -18t-35 -45.5t-18.5 -60.5t-5.5 -62q0 -38 4.5 -73.5t17 -62.5t34 -43t54.5 -16q22 0 41 10t33.5 28t23 43t8.5 55v110zM412 -5q0 -40 -14 -75t-41 -61.5t-68 -41.5t-95 -15q-39 0 -66.5 5.5t-59.5 16.5
l15 62q30 -14 55.5 -19.5t58.5 -5.5q37 0 64 11.5t43.5 30t24.5 42t8 47.5v86q-17 -33 -46 -55.5t-81 -22.5q-47 0 -78.5 19.5t-51 53t-28 79t-8.5 98.5q0 51 12 96t36 78t59 52t80 19q38 0 66 -19t40 -47l9 57h66v-491zM295 648q0 -20 -15 -35t-36 -15t-36 15t-15 35t15 35
t36 15t36 -15t15 -35z" />
    <glyph glyph-name="Gcommaaccent" unicode="&#x122;" horiz-adv-x="572" 
d="M511 22q-36 -18 -77 -25.5t-83 -7.5q-80 0 -136.5 26.5t-92.5 73.5t-53 112t-17 143q0 73 22 134t63 105.5t99 69.5t129 25q34 0 68.5 -4t66.5 -16l-15 -68q-29 11 -59.5 16t-60.5 5q-60 0 -103 -21t-71 -57t-41.5 -85t-13.5 -104q0 -57 11 -109.5t37 -93t70 -64.5
t109 -24q17 0 34.5 3.5t37.5 13.5v225h-103v65h179v-338zM297 -217l-46 12l57 160l64 -16z" />
    <glyph glyph-name="gcommaaccent" unicode="&#x123;" horiz-adv-x="486" 
d="M338 303q0 28 -6.5 52.5t-19.5 43t-32.5 29t-44.5 10.5q-32 0 -54 -18t-35 -45.5t-18.5 -60.5t-5.5 -62q0 -38 4.5 -73.5t17 -62.5t34 -43t54.5 -16q22 0 41 10t33.5 28t23 43t8.5 55v110zM412 -5q0 -40 -14 -75t-41 -61.5t-68 -41.5t-95 -15q-39 0 -66.5 5.5t-59.5 16.5
l15 62q30 -14 55.5 -19.5t58.5 -5.5q37 0 64 11.5t43.5 30t24.5 42t8 47.5v86q-17 -33 -46 -55.5t-81 -22.5q-47 0 -78.5 19.5t-51 53t-28 79t-8.5 98.5q0 51 12 96t36 78t59 52t80 19q38 0 66 -19t40 -47l9 57h66v-491zM282 728l46 -12l-57 -160l-64 16z" />
    <glyph glyph-name="Hcircumflex" unicode="&#x124;" horiz-adv-x="586" 
d="M420 0v310h-254v-310h-80v667h80v-288h254v288h80v-667h-80zM374 724l-79 101l-79 -101h-60l100 136h79l100 -136h-61z" />
    <glyph glyph-name="hcircumflex" unicode="&#x125;" horiz-adv-x="492" 
d="M343 0v339q0 40 -22.5 69.5t-67.5 29.5q-27 0 -46.5 -12.5t-32.5 -31.5t-19 -41.5t-6 -41.5v-311h-75v712h75v-295q7 18 21.5 32.5t32.5 24.5t37.5 15.5t37.5 5.5q36 0 62.5 -12.5t43.5 -34t25.5 -50t8.5 -60.5v-338h-75zM292 750l-79 101l-79 -101h-60l100 136h79
l100 -136h-61z" />
    <glyph glyph-name="Hbar" unicode="&#x126;" horiz-adv-x="586" 
d="M420 0v310h-254v-310h-80v667h80v-117h254v117h80v-667h-80zM420 379v119h-254v-119h254z" />
    <glyph glyph-name="hbar" unicode="&#x127;" horiz-adv-x="492" 
d="M9 560v52h65v100h75v-100h101v-52h-101v-143q7 18 21.5 32.5t32.5 24.5t37.5 15.5t37.5 5.5q36 0 62.5 -12.5t43.5 -34t25.5 -50t8.5 -60.5v-338h-75v339q0 40 -22.5 69.5t-67.5 29.5q-27 0 -46.5 -12.5t-32.5 -31.5t-19 -41.5t-6 -41.5v-311h-75v560h-65z" />
    <glyph glyph-name="Itilde" unicode="&#x128;" horiz-adv-x="252" 
d="M86 0v667h80v-667h-80zM266 846q0 -17 -7 -35t-19 -33.5t-28.5 -25.5t-35.5 -10q-18 0 -31 6.5t-24.5 14.5t-22.5 14.5t-24 6.5q-16 0 -25.5 -15t-9.5 -31h-52q0 18 6.5 36.5t18 33.5t28 24.5t36.5 9.5q17 0 31 -6.5t26 -14.5t23 -14.5t22 -6.5q17 0 26.5 16t9.5 30h52z
" />
    <glyph glyph-name="itilde" unicode="&#x129;" 
d="M92 0v427h-66v59h141v-486h-75zM260 702q0 -17 -7 -35t-19 -33.5t-28.5 -25.5t-35.5 -10q-18 0 -31 6.5t-24.5 14.5t-22.5 14.5t-24 6.5q-16 0 -25.5 -15t-9.5 -31h-52q0 18 6.5 36.5t18 33.5t28 24.5t36.5 9.5q17 0 31 -6.5t26 -14.5t23 -14.5t22 -6.5q17 0 26.5 16
t9.5 30h52z" />
    <glyph glyph-name="Imacron" unicode="&#x12a;" horiz-adv-x="252" 
d="M86 0v667h80v-667h-80zM5 766v52h241v-52h-241z" />
    <glyph glyph-name="imacron" unicode="&#x12b;" 
d="M92 0v427h-66v59h141v-486h-75zM-2 622v52h241v-52h-241z" />
    <glyph glyph-name="Iogonek" unicode="&#x12e;" horiz-adv-x="252" 
d="M176 -169q-18 -8 -35 -12.5t-37 -4.5q-40 0 -65.5 21.5t-25.5 58.5q0 34 24.5 60t70.5 46h-22v667h80v-667h-19q-35 -22 -55.5 -45.5t-20.5 -55.5q0 -26 14.5 -39t31.5 -13q13 0 26 5t21 10z" />
    <glyph glyph-name="iogonek" unicode="&#x12f;" 
d="M184 -169q-18 -8 -35 -12.5t-37 -4.5q-40 0 -65.5 21.5t-25.5 58.5q0 34 24.5 60t70.5 46h-24v427h-66v59h141v-486h-12q-35 -22 -55.5 -45.5t-20.5 -55.5q0 -26 14.5 -39t31.5 -13q13 0 26 5t21 10zM175 648q0 -20 -15 -35t-36 -15t-36 15t-15 35t15 35t36 15t36 -15
t15 -35z" />
    <glyph glyph-name="Idotaccent" unicode="&#x130;" horiz-adv-x="252" 
d="M86 0v667h80v-667h-80zM178 792q0 -20 -15 -35t-36 -15t-36 15t-15 35t15 35t36 15t36 -15t15 -35z" />
    <glyph glyph-name="dotlessi" unicode="&#x131;" 
d="M92 0v427h-66v59h141v-486h-75z" />
    <glyph glyph-name="Jcircumflex" unicode="&#x134;" horiz-adv-x="362" 
d="M276 45q0 -40 -8 -74t-27.5 -59t-52 -39t-81.5 -14q-11 0 -24.5 0.5t-27.5 2t-26.5 3.5t-20.5 5l15 61q12 -5 31.5 -6t46.5 -1q30 0 48.5 10.5t29 26.5t14 34t3.5 33v574h-153v65h233v-622zM257 724l-79 101l-79 -101h-60l100 136h79l100 -136h-61z" />
    <glyph glyph-name="jcircumflex" unicode="&#x135;" 
d="M167 -33q0 -41 -5 -72t-18.5 -51.5t-38 -31t-63.5 -10.5q-9 0 -19.5 3t-19.5 7l15 55q6 -2 14.5 -4t17.5 -2q26 0 34 19t8 55v492h-66v59h141v-519zM196 580l-79 101l-79 -101h-60l100 136h79l100 -136h-61z" />
    <glyph glyph-name="Kcommaaccent" unicode="&#x136;" horiz-adv-x="517" 
d="M413 0l-247 353v-353h-80v667h80v-313l242 313h93l-248 -308l257 -359h-97zM240 -198l-46 12l57 160l64 -16z" />
    <glyph glyph-name="kcommaaccent" unicode="&#x137;" horiz-adv-x="428" 
d="M326 0l-177 254v-254h-75v712h75v-437l169 211h83l-178 -214l191 -272h-88zM194 -198l-46 12l57 160l64 -16z" />
    <glyph glyph-name="Lacute" unicode="&#x139;" horiz-adv-x="394" 
d="M86 0v667h80v-596h209v-71h-289zM165 724h-62l73 136h94z" />
    <glyph glyph-name="lacute" unicode="&#x13a;" 
d="M228 5q-23 -14 -50 -14q-36 0 -57 9.5t-32 27.5t-14 43t-3 57v584h75v-586q0 -11 0.5 -24.5t4 -25t11.5 -19.5t23 -8q12 0 29 5zM135 747h-62l73 136h94z" />
    <glyph glyph-name="Lcommaaccent" unicode="&#x13b;" horiz-adv-x="394" 
d="M86 0v667h80v-596h209v-71h-289zM197 -207l-46 12l57 160l64 -16z" />
    <glyph glyph-name="lcommaaccent" unicode="&#x13c;" 
d="M228 5q-23 -14 -50 -14q-36 0 -57 9.5t-32 27.5t-14 43t-3 57v584h75v-586q0 -11 0.5 -24.5t4 -25t11.5 -19.5t23 -8q12 0 29 5zM107 -227l-46 12l57 160l64 -16z" />
    <glyph glyph-name="Lcaron" unicode="&#x13d;" horiz-adv-x="394" 
d="M86 0v667h80v-596h209v-71h-289zM281 498l-46 12l57 160l64 -16z" />
    <glyph glyph-name="lcaron" unicode="&#x13e;" 
d="M228 5q-23 -14 -50 -14q-36 0 -57 9.5t-32 27.5t-14 43t-3 57v584h75v-586q0 -11 0.5 -24.5t4 -25t11.5 -19.5t23 -8q12 0 29 5zM230 543l-46 12l57 160l64 -16z" />
    <glyph glyph-name="Ldot" unicode="&#x13f;" horiz-adv-x="394" 
d="M86 0v667h80v-596h209v-71h-289zM363 406q0 -20 -15 -35t-36 -15t-36 15t-15 35t15 35t36 15t36 -15t15 -35z" />
    <glyph glyph-name="ldot" unicode="&#x140;" horiz-adv-x="337" 
d="M228 5q-23 -14 -50 -14q-36 0 -57 9.5t-32 27.5t-14 43t-3 57v584h75v-586q0 -11 0.5 -24.5t4 -25t11.5 -19.5t23 -8q12 0 29 5zM317 419q0 -20 -15 -35t-36 -15t-36 15t-15 35t15 35t36 15t36 -15t15 -35z" />
    <glyph glyph-name="Lslash" unicode="&#x141;" horiz-adv-x="394" 
d="M86 0v287l-60 -64v71l60 65v308h80v-236l114 121v-73l-114 -121v-287h209v-71h-289z" />
    <glyph glyph-name="lslash" unicode="&#x142;" 
d="M228 5q-23 -14 -50 -14q-36 0 -57 9.5t-32 27.5t-14 43t-3 57v194l-54 -59v71l54 60v318h75v-251l58 66v-71l-58 -66v-264q0 -11 0.5 -24.5t4 -25t11.5 -19.5t23 -8q12 0 29 5z" />
    <glyph glyph-name="Nacute" unicode="&#x143;" horiz-adv-x="606" 
d="M411 0l-252 583v-583h-73v667h112l249 -581v581h73v-667h-109zM321 724h-62l73 136h94z" />
    <glyph glyph-name="nacute" unicode="&#x144;" horiz-adv-x="492" 
d="M343 0v340q0 42 -23 70t-68 28q-25 0 -44 -11t-32 -29t-20 -40.5t-7 -44.5v-313h-75v486h66l9 -67q8 18 22 32t31.5 23.5t37 15t38.5 5.5q35 0 61.5 -12t44 -33.5t26 -50t8.5 -61.5v-338h-75zM255 580h-62l73 136h94z" />
    <glyph glyph-name="Ncommaaccent" unicode="&#x145;" horiz-adv-x="606" 
d="M411 0l-252 583v-583h-73v667h112l249 -581v581h73v-667h-109zM269 -198l-46 12l57 160l64 -16z" />
    <glyph glyph-name="ncommaaccent" unicode="&#x146;" horiz-adv-x="492" 
d="M343 0v340q0 42 -23 70t-68 28q-25 0 -44 -11t-32 -29t-20 -40.5t-7 -44.5v-313h-75v486h66l9 -67q8 18 22 32t31.5 23.5t37 15t38.5 5.5q35 0 61.5 -12t44 -33.5t26 -50t8.5 -61.5v-338h-75zM218 -198l-46 12l57 160l64 -16z" />
    <glyph glyph-name="Ncaron" unicode="&#x147;" horiz-adv-x="606" 
d="M411 0l-252 583v-583h-73v667h112l249 -581v581h73v-667h-109zM344 724h-79l-100 136h64l79 -101l79 101h57z" />
    <glyph glyph-name="ncaron" unicode="&#x148;" horiz-adv-x="492" 
d="M343 0v340q0 42 -23 70t-68 28q-25 0 -44 -11t-32 -29t-20 -40.5t-7 -44.5v-313h-75v486h66l9 -67q8 18 22 32t31.5 23.5t37 15t38.5 5.5q35 0 61.5 -12t44 -33.5t26 -50t8.5 -61.5v-338h-75zM289 580h-79l-100 136h64l79 -101l79 101h57z" />
    <glyph glyph-name="Omacron" unicode="&#x14c;" horiz-adv-x="616" 
d="M480 344q0 42 -7 89.5t-26 87.5t-52.5 66t-86.5 26t-86 -26.5t-52.5 -66t-26.5 -87t-7 -89.5q0 -43 6 -93.5t24.5 -94t52 -73t89.5 -29.5t90 29t52 72.5t24 94t6 94.5zM564 344q0 -62 -12.5 -125t-42 -114t-79 -83.5t-122.5 -32.5q-79 0 -128.5 31t-78 81t-39 114
t-10.5 129q0 62 13 122t43 107t79 76t121 29q74 0 123.5 -28.5t79 -75t41.5 -106.5t12 -124zM188 766v52h241v-52h-241z" />
    <glyph glyph-name="omacron" unicode="&#x14d;" horiz-adv-x="466" 
d="M344 250q0 27 -3.5 59.5t-15.5 61t-34 48t-58 19.5t-58 -19.5t-34 -48t-15.5 -61t-3.5 -59.5t3.5 -62t14.5 -66t33 -52.5t60 -21.5q37 0 59.5 21.5t33.5 52.5t14.5 66t3.5 62zM422 250q0 -49 -9.5 -95.5t-31.5 -83t-58 -58.5t-90 -22q-55 0 -91.5 21.5t-58 57.5
t-30.5 82.5t-9 97.5q0 46 11.5 90t34.5 78.5t59 55.5t84 21q52 0 88 -20.5t58.5 -54.5t32.5 -78t10 -92zM114 622v52h241v-52h-241z" />
    <glyph glyph-name="Obreve" unicode="&#x14e;" horiz-adv-x="616" 
d="M480 344q0 42 -7 89.5t-26 87.5t-52.5 66t-86.5 26t-86 -26.5t-52.5 -66t-26.5 -87t-7 -89.5q0 -43 6 -93.5t24.5 -94t52 -73t89.5 -29.5t90 29t52 72.5t24 94t6 94.5zM564 344q0 -62 -12.5 -125t-42 -114t-79 -83.5t-122.5 -32.5q-79 0 -128.5 31t-78 81t-39 114
t-10.5 129q0 62 13 122t43 107t79 76t121 29q74 0 123.5 -28.5t79 -75t41.5 -106.5t12 -124zM429 854q0 -14 -6 -35t-20 -41t-37.5 -34t-57.5 -14q-35 0 -58.5 14t-37.5 33.5t-20 41t-6 35.5h41q3 -31 24.5 -52.5t56.5 -21.5t56 21.5t24 52.5h41z" />
    <glyph glyph-name="obreve" unicode="&#x14f;" horiz-adv-x="466" 
d="M344 250q0 27 -3.5 59.5t-15.5 61t-34 48t-58 19.5t-58 -19.5t-34 -48t-15.5 -61t-3.5 -59.5t3.5 -62t14.5 -66t33 -52.5t60 -21.5q37 0 59.5 21.5t33.5 52.5t14.5 66t3.5 62zM422 250q0 -49 -9.5 -95.5t-31.5 -83t-58 -58.5t-90 -22q-55 0 -91.5 21.5t-58 57.5
t-30.5 82.5t-9 97.5q0 46 11.5 90t34.5 78.5t59 55.5t84 21q52 0 88 -20.5t58.5 -54.5t32.5 -78t10 -92zM356 710q0 -14 -6 -35t-20 -41t-37.5 -34t-57.5 -14q-35 0 -58.5 14t-37.5 33.5t-20 41t-6 35.5h41q3 -31 24.5 -52.5t56.5 -21.5t56 21.5t24 52.5h41z" />
    <glyph glyph-name="Ohungarumlaut" unicode="&#x150;" horiz-adv-x="616" 
d="M480 344q0 42 -7 89.5t-26 87.5t-52.5 66t-86.5 26t-86 -26.5t-52.5 -66t-26.5 -87t-7 -89.5q0 -43 6 -93.5t24.5 -94t52 -73t89.5 -29.5t90 29t52 72.5t24 94t6 94.5zM564 344q0 -62 -12.5 -125t-42 -114t-79 -83.5t-122.5 -32.5q-79 0 -128.5 31t-78 81t-39 114
t-10.5 129q0 62 13 122t43 107t79 76t121 29q74 0 123.5 -28.5t79 -75t41.5 -106.5t12 -124zM240 724h-61l73 136h93zM404 724h-61l73 136h93z" />
    <glyph glyph-name="ohungarumlaut" unicode="&#x151;" horiz-adv-x="466" 
d="M344 250q0 27 -3.5 59.5t-15.5 61t-34 48t-58 19.5t-58 -19.5t-34 -48t-15.5 -61t-3.5 -59.5t3.5 -62t14.5 -66t33 -52.5t60 -21.5q37 0 59.5 21.5t33.5 52.5t14.5 66t3.5 62zM422 250q0 -49 -9.5 -95.5t-31.5 -83t-58 -58.5t-90 -22q-55 0 -91.5 21.5t-58 57.5
t-30.5 82.5t-9 97.5q0 46 11.5 90t34.5 78.5t59 55.5t84 21q52 0 88 -20.5t58.5 -54.5t32.5 -78t10 -92zM174 580h-61l73 136h93zM338 580h-61l73 136h93z" />
    <glyph glyph-name="Racute" unicode="&#x154;" horiz-adv-x="506" 
d="M358 496q0 59 -30.5 81.5t-86.5 22.5h-75v-239h60q63 0 97.5 33t34.5 102zM398 0q-14 23 -23.5 47t-20.5 49l-57 130q-5 11 -13.5 23.5t-19 22.5t-24 16.5t-28.5 6.5h-46v-295h-80v667h161q43 0 79 -9t62 -29t40 -51t14 -76q0 -42 -13 -73.5t-34.5 -54t-49.5 -35.5
t-58 -18q22 -4 37 -13t25.5 -21t17.5 -25.5t13 -26.5l66 -146q11 -23 19.5 -45.5t21.5 -43.5h-89zM251 724h-62l73 136h94z" />
    <glyph glyph-name="racute" unicode="&#x155;" horiz-adv-x="316" 
d="M276 421q-20 5 -37 5q-27 0 -44 -12t-27.5 -31.5t-14.5 -43.5t-4 -47v-292h-75v486h64l9 -65q23 39 51 56.5t67 17.5q7 0 18.5 -1.5t18.5 -4.5zM158 580h-62l73 136h94z" />
    <glyph glyph-name="Rcommaaccent" unicode="&#x156;" horiz-adv-x="506" 
d="M358 496q0 59 -30.5 81.5t-86.5 22.5h-75v-239h60q63 0 97.5 33t34.5 102zM398 0q-14 23 -23.5 47t-20.5 49l-57 130q-5 11 -13.5 23.5t-19 22.5t-24 16.5t-28.5 6.5h-46v-295h-80v667h161q43 0 79 -9t62 -29t40 -51t14 -76q0 -42 -13 -73.5t-34.5 -54t-49.5 -35.5
t-58 -18q22 -4 37 -13t25.5 -21t17.5 -25.5t13 -26.5l66 -146q11 -23 19.5 -45.5t21.5 -43.5h-89zM228 -198l-46 12l57 160l64 -16z" />
    <glyph glyph-name="rcommaaccent" unicode="&#x157;" horiz-adv-x="316" 
d="M276 421q-20 5 -37 5q-27 0 -44 -12t-27.5 -31.5t-14.5 -43.5t-4 -47v-292h-75v486h64l9 -65q23 39 51 56.5t67 17.5q7 0 18.5 -1.5t18.5 -4.5zM84 -217l-46 12l57 160l64 -16z" />
    <glyph glyph-name="Rcaron" unicode="&#x158;" horiz-adv-x="506" 
d="M358 496q0 59 -30.5 81.5t-86.5 22.5h-75v-239h60q63 0 97.5 33t34.5 102zM398 0q-14 23 -23.5 47t-20.5 49l-57 130q-5 11 -13.5 23.5t-19 22.5t-24 16.5t-28.5 6.5h-46v-295h-80v667h161q43 0 79 -9t62 -29t40 -51t14 -76q0 -42 -13 -73.5t-34.5 -54t-49.5 -35.5
t-58 -18q22 -4 37 -13t25.5 -21t17.5 -25.5t13 -26.5l66 -146q11 -23 19.5 -45.5t21.5 -43.5h-89zM285 724h-79l-100 136h64l79 -101l79 101h57z" />
    <glyph glyph-name="rcaron" unicode="&#x159;" horiz-adv-x="316" 
d="M276 421q-20 5 -37 5q-27 0 -44 -12t-27.5 -31.5t-14.5 -43.5t-4 -47v-292h-75v486h64l9 -65q23 39 51 56.5t67 17.5q7 0 18.5 -1.5t18.5 -4.5zM169 580h-79l-100 136h64l79 -101l79 101h57z" />
    <glyph glyph-name="Sacute" unicode="&#x15a;" horiz-adv-x="448" 
d="M399 194q0 -53 -17.5 -92t-49 -64t-74 -37t-91.5 -12q-30 0 -59.5 4t-58.5 15l4 71q28 -14 58.5 -19.5t61.5 -5.5q63 0 102 31t39 97q0 42 -19.5 65t-48.5 37.5t-63.5 27t-63.5 33t-48.5 55t-19.5 94.5q0 51 18 86t48.5 57t71.5 31.5t86 9.5q29 0 58 -4t56 -12l-17 -68
q-24 11 -51.5 15t-53.5 4q-60 0 -97 -24.5t-37 -90.5q0 -42 19.5 -65.5t49.5 -39t64 -28.5t64 -33t49.5 -52t19.5 -86zM256 724h-62l73 136h94z" />
    <glyph glyph-name="sacute" unicode="&#x15b;" horiz-adv-x="349" 
d="M311 143q0 -40 -14.5 -68.5t-38.5 -47t-56.5 -27.5t-68.5 -9q-24 0 -48 3.5t-47 12.5l15 62q20 -13 42.5 -17t45.5 -4q42 0 67.5 21.5t25.5 66.5q0 28 -14 43.5t-35 26.5t-45.5 20.5t-45.5 24.5t-35 39.5t-14 65.5q0 37 12 63t34 43t51.5 25t65.5 8q23 0 46.5 -2.5
t45.5 -9.5l-14 -60q-38 15 -77 15q-18 0 -34 -4t-29 -13t-20.5 -23t-7.5 -35q0 -28 14.5 -45t35.5 -29t46.5 -22.5t46.5 -25.5t35.5 -38t14.5 -60zM201 580h-62l73 136h94z" />
    <glyph glyph-name="Scircumflex" unicode="&#x15c;" horiz-adv-x="448" 
d="M399 194q0 -53 -17.5 -92t-49 -64t-74 -37t-91.5 -12q-30 0 -59.5 4t-58.5 15l4 71q28 -14 58.5 -19.5t61.5 -5.5q63 0 102 31t39 97q0 42 -19.5 65t-48.5 37.5t-63.5 27t-63.5 33t-48.5 55t-19.5 94.5q0 51 18 86t48.5 57t71.5 31.5t86 9.5q29 0 58 -4t56 -12l-17 -68
q-24 11 -51.5 15t-53.5 4q-60 0 -97 -24.5t-37 -90.5q0 -42 19.5 -65.5t49.5 -39t64 -28.5t64 -33t49.5 -52t19.5 -86zM322 724l-79 101l-79 -101h-60l100 136h79l100 -136h-61z" />
    <glyph glyph-name="scircumflex" unicode="&#x15d;" horiz-adv-x="349" 
d="M311 143q0 -40 -14.5 -68.5t-38.5 -47t-56.5 -27.5t-68.5 -9q-24 0 -48 3.5t-47 12.5l15 62q20 -13 42.5 -17t45.5 -4q42 0 67.5 21.5t25.5 66.5q0 28 -14 43.5t-35 26.5t-45.5 20.5t-45.5 24.5t-35 39.5t-14 65.5q0 37 12 63t34 43t51.5 25t65.5 8q23 0 46.5 -2.5
t45.5 -9.5l-14 -60q-38 15 -77 15q-18 0 -34 -4t-29 -13t-20.5 -23t-7.5 -35q0 -28 14.5 -45t35.5 -29t46.5 -22.5t46.5 -25.5t35.5 -38t14.5 -60zM269 580l-79 101l-79 -101h-60l100 136h79l100 -136h-61z" />
    <glyph glyph-name="Scedilla" unicode="&#x15e;" horiz-adv-x="448" 
d="M287 -112q0 -35 -29 -54.5t-72 -19.5q-22 0 -46 3.5t-42 13.5l13 31q16 -6 31.5 -10.5t35.5 -4.5q21 0 35.5 10.5t14.5 27.5t-11 24.5t-25 7.5q-13 0 -21.5 -1.5t-17.5 -5.5l-11 19l49 61q-12 -1 -24 -1q-30 0 -59.5 4t-58.5 15l4 71q28 -14 58.5 -19.5t61.5 -5.5
q63 0 102 31t39 97q0 42 -19.5 65t-48.5 37.5t-63.5 27t-63.5 33t-48.5 55t-19.5 94.5q0 51 18 86t48.5 57t71.5 31.5t86 9.5q29 0 58 -4t56 -12l-17 -68q-24 11 -51.5 15t-53.5 4q-60 0 -97 -24.5t-37 -90.5q0 -42 19.5 -65.5t49.5 -39t64 -28.5t64 -33t49.5 -52t19.5 -86
q0 -53 -17.5 -92t-49 -64t-74.5 -37q-11 -3 -23 -5l-45 -50q6 2 14 3.5t21 1.5q26 0 44 -17.5t18 -45.5z" />
    <glyph glyph-name="scedilla" unicode="&#x15f;" horiz-adv-x="349" 
d="M243 -112q0 -35 -29 -54.5t-72 -19.5q-22 0 -46 3.5t-42 13.5l13 31q16 -6 31.5 -10.5t35.5 -4.5q21 0 35.5 10.5t14.5 27.5t-11 24.5t-25 7.5q-13 0 -21.5 -1.5t-17.5 -5.5l-11 19l51 63q-8 -1 -16 -1q-24 0 -48 3.5t-47 12.5l15 62q20 -13 42.5 -17t45.5 -4
q42 0 67.5 21.5t25.5 66.5q0 28 -14 43.5t-35 26.5t-45.5 20.5t-45.5 24.5t-35 39.5t-14 65.5q0 37 12 63t34 43t51.5 25t65.5 8q23 0 46.5 -2.5t45.5 -9.5l-14 -60q-38 15 -77 15q-18 0 -34 -4t-29 -13t-20.5 -23t-7.5 -35q0 -28 14.5 -45t35.5 -29t46.5 -22.5t46.5 -25.5
t35.5 -38t14.5 -60q0 -40 -14.5 -68.5t-38.5 -47t-57 -27.5q-3 -1 -7 -2l-48 -52q6 2 14 3.5t21 1.5q26 0 44 -17.5t18 -45.5z" />
    <glyph glyph-name="Tcommaaccent" unicode="&#x162;" horiz-adv-x="392" 
d="M236 598v-598h-80v598h-144v69h368v-69h-144zM161 -217l-46 12l57 160l64 -16z" />
    <glyph glyph-name="tcommaaccent" unicode="&#x163;" horiz-adv-x="283" 
d="M263 5l-17.5 -7t-15 -4.5t-17 -2t-23.5 -0.5q-60 0 -82 31.5t-22 100.5v304h-68v59h68v112l75 33v-145h95v-59h-95v-294q0 -42 11.5 -62.5t37.5 -20.5q14 0 23 1.5t22 6.5zM119 -227l-46 12l57 160l64 -16z" />
    <glyph glyph-name="Tcaron" unicode="&#x164;" horiz-adv-x="392" 
d="M236 598v-598h-80v598h-144v69h368v-69h-144zM236 724h-79l-100 136h64l79 -101l79 101h57z" />
    <glyph glyph-name="tcaron" unicode="&#x165;" horiz-adv-x="283" 
d="M263 5l-17.5 -7t-15 -4.5t-17 -2t-23.5 -0.5q-60 0 -82 31.5t-22 100.5v304h-68v59h68v112l75 33v-145h95v-59h-95v-294q0 -42 11.5 -62.5t37.5 -20.5q14 0 23 1.5t22 6.5zM260 540l-46 12l57 160l64 -16z" />
    <glyph glyph-name="Tbar" unicode="&#x166;" horiz-adv-x="392" 
d="M74 398v52h82v148h-144v69h368v-69h-144v-148h79v-52h-79v-398h-80v398h-82z" />
    <glyph glyph-name="tbar" unicode="&#x167;" horiz-adv-x="283" 
d="M19 248v52h67v127h-68v59h68v112l75 33v-145h95v-59h-95v-127h89v-52h-89v-115q0 -42 11.5 -62.5t37.5 -20.5q14 0 23 1.5t22 6.5l8 -53l-18 -7q-7 -3 -14.5 -4.5t-17 -2t-23.5 -0.5q-60 0 -82 31.5t-22 100.5v125h-67z" />
    <glyph glyph-name="Utilde" unicode="&#x168;" horiz-adv-x="594" 
d="M513 241q0 -58 -12 -104.5t-38 -79.5t-67 -50.5t-99 -17.5q-60 0 -101.5 17.5t-67 50.5t-36.5 79.5t-11 104.5v426h80v-428q0 -32 6 -64.5t21.5 -58.5t41.5 -42t67 -16q43 0 70 16t41.5 42t19.5 58.5t5 64.5v428h80v-426zM435 846q0 -17 -7 -35t-19 -33.5t-28.5 -25.5
t-35.5 -10q-18 0 -31 6.5t-24.5 14.5t-22.5 14.5t-24 6.5q-16 0 -25.5 -15t-9.5 -31h-52q0 18 6.5 36.5t18 33.5t28 24.5t36.5 9.5q17 0 31 -6.5t26 -14.5t23 -14.5t22 -6.5q17 0 26.5 16t9.5 30h52z" />
    <glyph glyph-name="utilde" unicode="&#x169;" horiz-adv-x="484" 
d="M345 0l-9 65q-8 -18 -22 -32t-31.5 -23t-36.5 -14t-37 -5q-38 0 -64 12t-42 33t-23.5 49.5t-7.5 60.5v340h74v-334q0 -51 21.5 -77.5t64.5 -26.5q27 0 46 13.5t32 33.5t19 42.5t6 41.5v307h75v-486h-65zM393 702q0 -17 -7 -35t-19 -33.5t-28.5 -25.5t-35.5 -10
q-18 0 -31 6.5t-24.5 14.5t-22.5 14.5t-24 6.5q-16 0 -25.5 -15t-9.5 -31h-52q0 18 6.5 36.5t18 33.5t28 24.5t36.5 9.5q17 0 31 -6.5t26 -14.5t23 -14.5t22 -6.5q17 0 26.5 16t9.5 30h52z" />
    <glyph glyph-name="Umacron" unicode="&#x16a;" horiz-adv-x="594" 
d="M513 241q0 -58 -12 -104.5t-38 -79.5t-67 -50.5t-99 -17.5q-60 0 -101.5 17.5t-67 50.5t-36.5 79.5t-11 104.5v426h80v-428q0 -32 6 -64.5t21.5 -58.5t41.5 -42t67 -16q43 0 70 16t41.5 42t19.5 58.5t5 64.5v428h80v-426zM178 766v52h241v-52h-241z" />
    <glyph glyph-name="umacron" unicode="&#x16b;" horiz-adv-x="484" 
d="M345 0l-9 65q-8 -18 -22 -32t-31.5 -23t-36.5 -14t-37 -5q-38 0 -64 12t-42 33t-23.5 49.5t-7.5 60.5v340h74v-334q0 -51 21.5 -77.5t64.5 -26.5q27 0 46 13.5t32 33.5t19 42.5t6 41.5v307h75v-486h-65zM120 622v52h241v-52h-241z" />
    <glyph glyph-name="Ubreve" unicode="&#x16c;" horiz-adv-x="594" 
d="M513 241q0 -58 -12 -104.5t-38 -79.5t-67 -50.5t-99 -17.5q-60 0 -101.5 17.5t-67 50.5t-36.5 79.5t-11 104.5v426h80v-428q0 -32 6 -64.5t21.5 -58.5t41.5 -42t67 -16q43 0 70 16t41.5 42t19.5 58.5t5 64.5v428h80v-426zM420 854q0 -14 -6 -35t-20 -41t-37.5 -34
t-57.5 -14q-35 0 -58.5 14t-37.5 33.5t-20 41t-6 35.5h41q3 -31 24.5 -52.5t56.5 -21.5t56 21.5t24 52.5h41z" />
    <glyph glyph-name="ubreve" unicode="&#x16d;" horiz-adv-x="484" 
d="M345 0l-9 65q-8 -18 -22 -32t-31.5 -23t-36.5 -14t-37 -5q-38 0 -64 12t-42 33t-23.5 49.5t-7.5 60.5v340h74v-334q0 -51 21.5 -77.5t64.5 -26.5q27 0 46 13.5t32 33.5t19 42.5t6 41.5v307h75v-486h-65zM364 710q0 -14 -6 -35t-20 -41t-37.5 -34t-57.5 -14
q-35 0 -58.5 14t-37.5 33.5t-20 41t-6 35.5h41q3 -31 24.5 -52.5t56.5 -21.5t56 21.5t24 52.5h41z" />
    <glyph glyph-name="Uring" unicode="&#x16e;" horiz-adv-x="594" 
d="M513 241q0 -58 -12 -104.5t-38 -79.5t-67 -50.5t-99 -17.5q-60 0 -101.5 17.5t-67 50.5t-36.5 79.5t-11 104.5v426h80v-428q0 -32 6 -64.5t21.5 -58.5t41.5 -42t67 -16q43 0 70 16t41.5 42t19.5 58.5t5 64.5v428h80v-426zM359 792q0 25 -16.5 42.5t-42.5 17.5
q-24 0 -42 -17.5t-18 -42.5q0 -26 17.5 -43t42.5 -17q26 0 42.5 17t16.5 43zM397 792q0 -40 -28.5 -65.5t-68.5 -25.5q-42 0 -69.5 25.5t-27.5 65.5t28.5 65.5t68.5 25.5q42 0 69.5 -25.5t27.5 -65.5z" />
    <glyph glyph-name="uring" unicode="&#x16f;" horiz-adv-x="484" 
d="M345 0l-9 65q-8 -18 -22 -32t-31.5 -23t-36.5 -14t-37 -5q-38 0 -64 12t-42 33t-23.5 49.5t-7.5 60.5v340h74v-334q0 -51 21.5 -77.5t64.5 -26.5q27 0 46 13.5t32 33.5t19 42.5t6 41.5v307h75v-486h-65zM307 648q0 25 -16.5 42.5t-42.5 17.5q-24 0 -42 -17.5t-18 -42.5
q0 -26 17.5 -43t42.5 -17q26 0 42.5 17t16.5 43zM345 648q0 -40 -28.5 -65.5t-68.5 -25.5q-42 0 -69.5 25.5t-27.5 65.5t28.5 65.5t68.5 25.5q42 0 69.5 -25.5t27.5 -65.5z" />
    <glyph glyph-name="Uhungarumlaut" unicode="&#x170;" horiz-adv-x="594" 
d="M513 241q0 -58 -12 -104.5t-38 -79.5t-67 -50.5t-99 -17.5q-60 0 -101.5 17.5t-67 50.5t-36.5 79.5t-11 104.5v426h80v-428q0 -32 6 -64.5t21.5 -58.5t41.5 -42t67 -16q43 0 70 16t41.5 42t19.5 58.5t5 64.5v428h80v-426zM228 724h-61l73 136h93zM392 724h-61l73 136h93z
" />
    <glyph glyph-name="uhungarumlaut" unicode="&#x171;" horiz-adv-x="484" 
d="M345 0l-9 65q-8 -18 -22 -32t-31.5 -23t-36.5 -14t-37 -5q-38 0 -64 12t-42 33t-23.5 49.5t-7.5 60.5v340h74v-334q0 -51 21.5 -77.5t64.5 -26.5q27 0 46 13.5t32 33.5t19 42.5t6 41.5v307h75v-486h-65zM181 580h-61l73 136h93zM345 580h-61l73 136h93z" />
    <glyph glyph-name="Uogonek" unicode="&#x172;" horiz-adv-x="594" 
d="M389 -169q-18 -8 -35 -12.5t-37 -4.5q-40 0 -65.5 21.5t-25.5 58.5q0 34 24 60q18 19 47 35q-60 0 -101.5 17.5t-67 50.5t-36.5 79.5t-11 104.5v426h80v-428q0 -32 6 -64.5t21.5 -58.5t41.5 -42t67 -16q43 0 70 16t41.5 42t19.5 58.5t5 64.5v428h80v-426
q0 -58 -12 -104.5t-38 -79.5t-67 -51q-21 -8 -47 -13q-28 -19 -45 -38q-20 -24 -20 -56q0 -26 14.5 -39t31.5 -13q13 0 26 5t21 10z" />
    <glyph glyph-name="uogonek" unicode="&#x173;" horiz-adv-x="484" 
d="M428 -169q-18 -8 -35 -12.5t-37 -4.5q-40 0 -65.5 21.5t-25.5 58.5q0 34 24.5 60t70.5 46h-15l-9 65q-8 -18 -22 -32t-31.5 -23t-36.5 -14t-37 -5q-38 0 -64 12t-42 33t-23.5 49.5t-7.5 60.5v340h74v-334q0 -51 21.5 -77.5t64.5 -26.5q27 0 46 13.5t32 33.5t19 42.5
t6 41.5v307h75v-486h-11q-35 -22 -55.5 -45.5t-20.5 -55.5q0 -26 14.5 -39t31.5 -13q13 0 26 5t21 10z" />
    <glyph glyph-name="Wcircumflex" unicode="&#x174;" horiz-adv-x="730" 
d="M576 0h-100l-111 584l-110 -584h-101l-130 667h81l101 -584l111 584h103l107 -584l100 584h79zM444 724l-79 101l-79 -101h-60l100 136h79l100 -136h-61z" />
    <glyph glyph-name="wcircumflex" unicode="&#x175;" horiz-adv-x="565" 
d="M456 0h-85l-87 427l-87 -427h-85l-97 486h75l68 -416l84 416h91l85 -416l65 416h70zM366 580l-79 101l-79 -101h-60l100 136h79l100 -136h-61z" />
    <glyph glyph-name="Ycircumflex" unicode="&#x176;" horiz-adv-x="476" 
d="M278 273v-273h-80v269l-194 398h92l148 -316l142 316h86zM324 724l-79 101l-79 -101h-60l100 136h79l100 -136h-61z" />
    <glyph glyph-name="ycircumflex" unicode="&#x177;" horiz-adv-x="404" 
d="M12 486h83l106 -389l114 389h77l-159 -486l-17 -50q-12 -35 -23.5 -62.5t-26 -46.5t-34 -29t-47.5 -10q-14 0 -27.5 1t-28.5 6l17 66q9 -3 14 -4t13 -1q30 0 45.5 17t26.5 55l17 58zM283 580l-79 101l-79 -101h-60l100 136h79l100 -136h-61z" />
    <glyph glyph-name="Zacute" unicode="&#x179;" horiz-adv-x="473" 
d="M33 0v59l306 539h-294v69h389v-60l-305 -538h311v-69h-407zM245 724h-62l73 136h94z" />
    <glyph glyph-name="zacute" unicode="&#x17a;" horiz-adv-x="361" 
d="M28 0v51l217 376h-205v59h289v-52l-217 -375h221v-59h-305zM200 580h-62l73 136h94z" />
    <glyph glyph-name="Zdotaccent" unicode="&#x17b;" horiz-adv-x="473" 
d="M33 0v59l306 539h-294v69h389v-60l-305 -538h311v-69h-407zM287 792q0 -20 -15 -35t-36 -15t-36 15t-15 35t15 35t36 15t36 -15t15 -35z" />
    <glyph glyph-name="zdotaccent" unicode="&#x17c;" horiz-adv-x="361" 
d="M28 0v51l217 376h-205v59h289v-52l-217 -375h221v-59h-305zM241 648q0 -20 -15 -35t-36 -15t-36 15t-15 35t15 35t36 15t36 -15t15 -35z" />
    <glyph glyph-name="Scommaaccent" unicode="&#x218;" horiz-adv-x="448" 
d="M399 194q0 -53 -17.5 -92t-49 -64t-74 -37t-91.5 -12q-30 0 -59.5 4t-58.5 15l4 71q28 -14 58.5 -19.5t61.5 -5.5q63 0 102 31t39 97q0 42 -19.5 65t-48.5 37.5t-63.5 27t-63.5 33t-48.5 55t-19.5 94.5q0 51 18 86t48.5 57t71.5 31.5t86 9.5q29 0 58 -4t56 -12l-17 -68
q-24 11 -51.5 15t-53.5 4q-60 0 -97 -24.5t-37 -90.5q0 -42 19.5 -65.5t49.5 -39t64 -28.5t64 -33t49.5 -52t19.5 -86zM167 -227l-46 12l57 160l64 -16z" />
    <glyph glyph-name="scommaaccent" unicode="&#x219;" horiz-adv-x="349" 
d="M311 143q0 -40 -14.5 -68.5t-38.5 -47t-56.5 -27.5t-68.5 -9q-24 0 -48 3.5t-47 12.5l15 62q20 -13 42.5 -17t45.5 -4q42 0 67.5 21.5t25.5 66.5q0 28 -14 43.5t-35 26.5t-45.5 20.5t-45.5 24.5t-35 39.5t-14 65.5q0 37 12 63t34 43t51.5 25t65.5 8q23 0 46.5 -2.5
t45.5 -9.5l-14 -60q-38 15 -77 15q-18 0 -34 -4t-29 -13t-20.5 -23t-7.5 -35q0 -28 14.5 -45t35.5 -29t46.5 -22.5t46.5 -25.5t35.5 -38t14.5 -60zM135 -227l-46 12l57 160l64 -16z" />
    <glyph glyph-name="uni021A" unicode="&#x21a;" horiz-adv-x="392" 
d="M236 598v-598h-80v598h-144v69h368v-69h-144zM161 -217l-46 12l57 160l64 -16z" />
    <glyph glyph-name="uni021B" unicode="&#x21b;" horiz-adv-x="283" 
d="M263 5l-17.5 -7t-15 -4.5t-17 -2t-23.5 -0.5q-60 0 -82 31.5t-22 100.5v304h-68v59h68v112l75 33v-145h95v-59h-95v-294q0 -42 11.5 -62.5t37.5 -20.5q14 0 23 1.5t22 6.5zM119 -227l-46 12l57 160l64 -16z" />
    <glyph glyph-name="dotlessj" unicode="&#x237;" 
d="M167 -33q0 -41 -5 -72t-18.5 -51.5t-38 -31t-63.5 -10.5q-9 0 -19.5 3t-19.5 7l15 55q6 -2 14.5 -4t17.5 -2q26 0 34 19t8 55v492h-66v59h141v-519z" />
    <glyph glyph-name="caron" unicode="&#x2c7;" 
d="M160 580h-79l-100 136h64l79 -101l79 101h57z" />
    <glyph glyph-name="uni02C9" unicode="&#x2c9;" 
d="M0 622v52h241v-52h-241z" />
    <glyph glyph-name="breve" unicode="&#x2d8;" 
d="M242 710q0 -14 -6 -35t-20 -41t-37.5 -34t-57.5 -14q-35 0 -58.5 14t-37.5 33.5t-20 41t-6 35.5h41q3 -31 24.5 -52.5t56.5 -21.5t56 21.5t24 52.5h41z" />
    <glyph glyph-name="dotaccent" unicode="&#x2d9;" 
d="M175 648q0 -20 -15 -35t-36 -15t-36 15t-15 35t15 35t36 15t36 -15t15 -35z" />
    <glyph glyph-name="ring" unicode="&#x2da;" 
d="M180 648q0 25 -16.5 42.5t-42.5 17.5q-24 0 -42 -17.5t-18 -42.5q0 -26 17.5 -43t42.5 -17q26 0 42.5 17t16.5 43zM218 648q0 -40 -28.5 -65.5t-68.5 -25.5q-42 0 -69.5 25.5t-27.5 65.5t28.5 65.5t68.5 25.5q42 0 69.5 -25.5t27.5 -65.5z" />
    <glyph glyph-name="ogonek" unicode="&#x2db;" 
d="M203 -169q-18 -8 -35 -12.5t-37 -4.5q-40 0 -65.5 21.5t-25.5 58.5q0 34 24.5 60t70.5 46h39q-35 -22 -55.5 -45.5t-20.5 -55.5q0 -26 14.5 -39t31.5 -13q13 0 26 5t21 10z" />
    <glyph glyph-name="hungarumlaut" unicode="&#x2dd;" 
d="M17 580h-61l73 136h93zM181 580h-61l73 136h93z" />
    <glyph glyph-name="uni0394" unicode="&#x394;" horiz-adv-x="776" 
d="M375 687l-210 -618h423zM60 0l270 763h90l275 -763h-635z" />
    <glyph glyph-name="uni03A9" unicode="&#x3a9;" horiz-adv-x="756" 
d="M417 0v169q44 2 77.5 21.5t55.5 50.5t33 69.5t11 79.5q0 46 -16 85.5t-45 68t-68.5 44.5t-86.5 16t-87 -16t-68.5 -45t-44.5 -68.5t-16 -86.5q0 -41 11 -79.5t33.5 -69t55.5 -49.5t77 -21v-169h-267v63h199v58q-47 10 -82.5 36t-58.5 62.5t-34.5 80t-11.5 88.5
q0 63 23.5 114.5t63.5 88t93.5 56.5t113.5 20t113.5 -19.5t93.5 -55.5t63.5 -87t23.5 -115q0 -45 -12 -89.5t-35 -81t-58.5 -63t-81.5 -35.5v-58h199v-63h-267z" />
    <glyph glyph-name="uni03BC" unicode="&#x3bc;" horiz-adv-x="504" 
d="M356 0l-9 65q-16 -36 -48 -55t-58 -19q-23 0 -44 4.5t-39 23.5v-217h-75v684h75v-334q0 -51 21.5 -77.5t64.5 -26.5q27 0 46 13.5t32 33.5t19 42.5t6 41.5v307h75v-486h-66z" />
    <glyph glyph-name="pi" unicode="&#x3c0;" horiz-adv-x="600" 
d="M524 8q-17 -9 -34 -14t-38 -5q-25 0 -41 7t-25.5 20t-13.5 31.5t-4 41.5v333h-181v-422h-73v422h-72v64h482v-64h-83v-309q0 -12 0.5 -23t4 -19.5t11.5 -13.5t22 -5q13 0 22.5 3.5t22.5 9.5v-57z" />
    <glyph glyph-name="fraction" unicode="&#x2044;" horiz-adv-x="252" 
d="M7 -24h-65l302 704h65z" />
    <glyph glyph-name="afii61289" unicode="&#x2113;" horiz-adv-x="500" 
d="M415 41q-59 -55 -130 -55q-55 0 -91 31.5t-36 96.5v114l-58 -62h-2l-26 37l86 84v259q0 42 10 74.5t27.5 55t41 34t50.5 11.5q48 0 79 -34t31 -94q0 -74 -43.5 -153t-127.5 -165v-150q0 -26 7 -43t18 -26.5t24 -13.5t26 -4q20 0 42.5 9t45.5 29h2l24 -35v0zM340 588
q0 38 -15 61.5t-38 23.5t-42 -28t-19 -88v-222q56 65 85 130.5t29 122.5z" />
    <glyph glyph-name="Omega" unicode="&#x2126;" horiz-adv-x="756" 
d="M417 0v169q44 2 77.5 21.5t55.5 50.5t33 69.5t11 79.5q0 46 -16 85.5t-45 68t-68.5 44.5t-86.5 16t-87 -16t-68.5 -45t-44.5 -68.5t-16 -86.5q0 -41 11 -79.5t33.5 -69t55.5 -49.5t77 -21v-169h-267v63h199v58q-47 10 -82.5 36t-58.5 62.5t-34.5 80t-11.5 88.5
q0 63 23.5 114.5t63.5 88t93.5 56.5t113.5 20t113.5 -19.5t93.5 -55.5t63.5 -87t23.5 -115q0 -45 -12 -89.5t-35 -81t-58.5 -63t-81.5 -35.5v-58h199v-63h-267z" />
    <glyph glyph-name="estimated" unicode="&#x212e;" horiz-adv-x="500" 
d="M157 259v-181q59 -59 145 -59q63 0 109 28.5t84 91.5l35 -21q-23 -36 -46.5 -61.5t-51 -42t-59.5 -24t-71 -7.5q-59 0 -106.5 21.5t-81.5 59t-52 87.5t-18 108t18 108.5t52 87.5t81.5 58.5t106.5 21.5q58 0 105.5 -20.5t81.5 -57t53 -87t19 -111.5h-404zM448 295v145
q-63 60 -147 60t-144 -60v-145h291z" />
    <glyph glyph-name="partialdiff" unicode="&#x2202;" horiz-adv-x="504" 
d="M365 282q-26 26 -62.5 42t-72.5 16q-30 0 -52.5 -12.5t-37.5 -33.5t-22.5 -48t-7.5 -55q0 -27 7 -52.5t21 -45.5t35 -32.5t49 -12.5q36 0 61.5 24.5t43 60.5t26.5 76.5t12 72.5zM436 334q0 -32 -4 -70.5t-13 -77t-24.5 -74t-39.5 -63t-57 -44t-76 -16.5q-44 0 -79 18
t-59.5 47.5t-37.5 68t-13 79.5t13 77t37 62.5t58 42t77 15.5q40 0 77.5 -13t67.5 -38q1 26 -6 69t-24 84.5t-46.5 71.5t-72.5 30q-29 0 -54 -13.5t-48 -39.5l-47 57q35 30 69 45t76 15q64 0 107.5 -32t70 -81.5t37.5 -108t11 -111.5z" />
    <glyph glyph-name="Delta" unicode="&#x2206;" horiz-adv-x="776" 
d="M375 687l-210 -618h423zM60 0l270 763h90l275 -763h-635z" />
    <glyph glyph-name="product" unicode="&#x220f;" horiz-adv-x="756" 
d="M569 -96v797h-382v-797h-70v859h522v-859h-70z" />
    <glyph glyph-name="summation" unicode="&#x2211;" horiz-adv-x="755" 
d="M81 -96v65l279 375l-261 354v65h529v-66h-434l265 -353l-283 -374h464v-66h-559z" />
    <glyph glyph-name="minus" unicode="&#x2212;" horiz-adv-x="600" 
d="M45 210v66h510v-66h-510z" />
    <glyph glyph-name="uni2215" unicode="&#x2215;" horiz-adv-x="252" 
d="M7 -24h-65l302 704h65z" />
    <glyph glyph-name="uni2219" unicode="&#x2219;" horiz-adv-x="252" 
d="M184 306q0 -25 -17.5 -44t-40.5 -19t-40.5 19t-17.5 44t17.5 43.5t40.5 18.5t40.5 -18.5t17.5 -43.5z" />
    <glyph glyph-name="radical" unicode="&#x221a;" horiz-adv-x="600" 
d="M338 -96h-81l-158 308l-48 -22l-29 61l120 53l143 -292l181 751h76z" />
    <glyph glyph-name="infinity" unicode="&#x221e;" horiz-adv-x="756" 
d="M340 244l-25.5 33t-29.5 31t-34.5 23.5t-40.5 9.5q-21 0 -38.5 -8t-30.5 -21.5t-20.5 -31.5t-7.5 -37q0 -42 27 -69.5t69 -27.5q23 0 41.5 9.5t34 24.5t29 32zM645 243q0 19 -7.5 37t-20.5 31t-30.5 21t-37.5 8t-38.5 -10t-35.5 -25t-31.5 -32l-26.5 -31l25.5 -33.5
t29.5 -31.5t34.5 -23.5t41.5 -9.5q21 0 39 8t30.5 21.5t20 31.5t7.5 38zM711 243q0 -33 -12.5 -62.5t-34 -51t-51.5 -34t-65 -12.5q-30 0 -55 9.5t-45.5 26t-38 37.5t-33.5 44q-16 -22 -32.5 -42.5t-36.5 -36.5t-43.5 -26t-53.5 -10q-35 0 -65.5 12t-52.5 33t-34.5 50
t-12.5 63t12.5 63t34 50.5t52 33.5t66.5 12q29 0 54 -10t46.5 -26.5t39 -37t32.5 -42.5l33 41.5t35 37t42.5 26.5t54.5 10q36 0 66 -12t52 -33t34 -50t12 -63z" />
    <glyph glyph-name="integral" unicode="&#x222b;" horiz-adv-x="504" 
d="M406 694q-5 2 -16 4.5t-24 2.5q-29 0 -44.5 -10.5t-23 -26.5t-9 -35.5t-1.5 -37.5v-519q0 -30 -5 -60t-19 -54t-39 -39t-65 -15q-16 0 -36 2.5t-27 5.5v61q5 -2 16 -4.5t24 -2.5q28 0 44 10.5t23.5 26t9 35t1.5 37.5v519q0 30 5.5 60t20 54t39.5 39.5t65 15.5
q17 0 36 -3.5t26 -5.5z" />
    <glyph glyph-name="approxequal" unicode="&#x2248;" horiz-adv-x="600" 
d="M566 231q-2 -27 -10.5 -54t-24 -49t-38.5 -35.5t-53 -13.5q-34 0 -70.5 11.5t-73 25.5t-71 25.5t-65.5 11.5q-17 0 -31.5 -7t-25 -18.5t-16.5 -25.5t-7 -29h-46q3 27 11.5 54.5t23.5 49t38 35.5t55 14q34 0 70 -11.5t72 -26t70.5 -26t66.5 -11.5q19 0 33 7t23.5 18.5
t15.5 25.5t9 29h44zM566 414q-2 -27 -10.5 -54t-24 -49t-38.5 -35.5t-53 -13.5q-34 0 -70.5 11.5t-73 26t-71 26t-65.5 11.5q-17 0 -31.5 -7.5t-25 -19t-16.5 -26t-7 -29.5h-46q3 27 11.5 54.5t23.5 49t38 35.5t55 14q34 0 70 -11.5t72 -25.5t70.5 -25.5t66.5 -11.5
q19 0 33 7t23.5 18.5t15.5 25.5t9 29h44z" />
    <glyph glyph-name="notequal" unicode="&#x2260;" horiz-adv-x="600" 
d="M269 113l-80 -155l-66 34l65 121h-143v65h178l66 131h-244v66h281l82 159l65 -34l-65 -125h147v-66h-184l-66 -131h250v-65h-286z" />
    <glyph glyph-name="lessequal" unicode="&#x2264;" horiz-adv-x="600" 
d="M45 0v65h510v-65h-510zM45 260v78l510 143v-75l-422 -107l422 -114v-73z" />
    <glyph glyph-name="greaterequal" unicode="&#x2265;" horiz-adv-x="600" 
d="M45 0v65h510v-65h-510zM45 112v73l422 114l-422 107v75l510 -143v-78z" />
    <glyph glyph-name="lozenge" unicode="&#x25ca;" horiz-adv-x="600" 
d="M300 699l-144 -307l144 -329l144 329zM336 0h-72l-187 392l187 371h72l187 -371z" />
    <glyph glyph-name="grave.cap" unicode="&#xe300;" 
d="M108 724l-105 136h93l73 -136h-61z" />
    <glyph glyph-name="acute.cap" unicode="&#xe301;" 
d="M135 724h-62l73 136h94z" />
    <glyph glyph-name="circumflex.cap" unicode="&#xe302;" 
d="M199 724l-79 101l-79 -101h-60l100 136h79l100 -136h-61z" />
    <glyph glyph-name="caron.cap" unicode="&#xe303;" 
d="M160 724h-79l-100 136h64l79 -101l79 101h57z" />
    <glyph glyph-name="tilde.cap" unicode="&#xe304;" 
d="M260 846q0 -17 -7 -35t-19 -33.5t-28.5 -25.5t-35.5 -10q-18 0 -31 6.5t-24.5 14.5t-22.5 14.5t-24 6.5q-16 0 -25.5 -15t-9.5 -31h-52q0 18 6.5 36.5t18 33.5t28 24.5t36.5 9.5q17 0 31 -6.5t26 -14.5t23 -14.5t22 -6.5q17 0 26.5 16t9.5 30h52z" />
    <glyph glyph-name="dieresis.cap" unicode="&#xe305;" 
d="M83 792q0 -23 -15.5 -39.5t-38.5 -16.5t-39 16.5t-16 39.5t16 39.5t39 16.5t38.5 -16.5t15.5 -39.5zM253 792q0 -23 -15.5 -39.5t-38.5 -16.5t-39 16.5t-16 39.5t16 39.5t39 16.5t38.5 -16.5t15.5 -39.5z" />
    <glyph glyph-name="macron.cap" unicode="&#xe306;" 
d="M0 766v52h241v-52h-241z" />
    <glyph glyph-name="breve.cap" unicode="&#xe307;" 
d="M242 854q0 -14 -6 -35t-20 -41t-37.5 -34t-57.5 -14q-35 0 -58.5 14t-37.5 33.5t-20 41t-6 35.5h41q3 -31 24.5 -52.5t56.5 -21.5t56 21.5t24 52.5h41z" />
    <glyph glyph-name="ring.cap" unicode="&#xe308;" 
d="M180 792q0 25 -16.5 42.5t-42.5 17.5q-24 0 -42 -17.5t-18 -42.5q0 -26 17.5 -43t42.5 -17q26 0 42.5 17t16.5 43zM218 792q0 -40 -28.5 -65.5t-68.5 -25.5q-42 0 -69.5 25.5t-27.5 65.5t28.5 65.5t68.5 25.5q42 0 69.5 -25.5t27.5 -65.5z" />
    <glyph glyph-name="hungarumlaut.cap" unicode="&#xe309;" 
d="M17 724h-61l73 136h93zM181 724h-61l73 136h93z" />
    <glyph glyph-name="dotaccent.cap" unicode="&#xe30a;" 
d="M175 792q0 -20 -15 -35t-36 -15t-36 15t-15 35t15 35t36 15t36 -15t15 -35z" />
    <glyph glyph-name="caron.alt" unicode="&#xe30b;" 
d="M119 560l-46 12l57 160l64 -16z" />
    <glyph glyph-name="commaaccent" unicode="&#xe30c;" 
d="M107 -198l-46 12l57 160l64 -16z" />
    <glyph glyph-name="commaaccent.alt" unicode="&#xe30d;" 
d="M148 728l46 -12l-57 -160l-64 16z" />
    <glyph glyph-name="uniF8FF" unicode="&#xf8ff;" horiz-adv-x="512" 
d="M222 117v67h56v-67h-56zM225 234l-2 17q0 56 13 81q7 13 18 27.5t28 31.5q16 15 26 26.5t15 21t7 18t2 17.5q0 36 -22.5 60.5t-53.5 24.5t-53.5 -22t-28.5 -73l-50 8q7 72 44 104.5t91 32.5t89 -35.5t35 -95.5q0 -32 -12.5 -58.5t-50.5 -61.5q-37 -33 -43 -52
q-6 -20 -6 -72h-46zM462 50v617h-412v-617h412zM512 718v-718h-512v718h512z" />
    </font>
</defs>
</svg>
