<?xml version="1.0" standalone="no"?>
<!DOCTYPE svg PUBLIC "-//W3C//DTD SVG 1.1//EN" "http://www.w3.org/Graphics/SVG/1.1/DTD/svg11.dtd" >
<svg xmlns="http://www.w3.org/2000/svg">
<metadata>Generated by IcoMoon</metadata>
<defs>
<font id="nest" horiz-adv-x="512">
<font-face units-per-em="512" ascent="480" descent="-32" />
<missing-glyph horiz-adv-x="512" />
<glyph unicode="&#x20;" d="" horiz-adv-x="256" />
<glyph unicode="&#xe600;" d="M0 344.32c0 25.088 8.704 46.080 26.624 63.488l46.080 45.568c17.408 17.92 38.4 26.624 64 26.624 25.088 0 46.592-8.704 64-26.624l64.512-65.024c17.408-17.408 26.112-38.4 26.112-63.488 0-25.6-9.216-47.616-27.648-65.536l27.648-27.648c17.92 18.432 39.936 27.648 65.024 27.648s46.592-8.704 64-26.112l65.536-65.536c17.408-17.408 26.112-38.912 26.112-64s-8.704-46.080-26.624-63.488l-46.080-45.568c-17.408-17.408-38.4-26.112-63.488-26.112s-46.592 8.704-64 26.624l-65.024 64.512c-17.408 17.408-26.112 38.4-26.112 63.488 0 25.6 9.216 47.616 27.648 65.536l-27.648 27.648c-17.92-18.432-39.936-27.648-65.024-27.648s-46.592 8.704-64 26.112l-65.536 65.536c-17.408 17.92-26.112 38.912-26.112 64zM60.416 344.32c0-8.192 3.072-15.36 8.704-21.504l65.536-65.024c5.632-5.632 12.8-8.704 21.504-8.704s16.384 3.072 22.528 9.728c-0.512 0.512-2.56 2.56-6.144 5.632s-5.632 5.632-6.656 6.656c-1.024 1.024-2.56 3.072-4.608 6.144-2.56 3.072-4.096 5.632-4.608 8.192s-1.024 5.632-1.024 8.704c0 8.192 3.072 15.36 8.704 21.504 5.632 5.632 12.8 8.704 21.504 8.704 3.072 0 6.144-0.512 8.704-1.024s5.12-2.048 8.192-4.096c2.56-2.048 4.608-3.584 6.144-4.608 1.024-1.024 3.584-3.584 6.656-6.656 3.072-3.584 5.12-5.12 5.632-6.144 6.656 6.656 10.24 14.336 10.24 23.040 0 8.192-3.072 15.36-8.704 21.504l-65.024 64.512c-5.632 5.632-12.8 8.704-21.504 8.704-8.192 0-15.36-3.072-21.504-8.704l-46.080-45.568c-5.632-5.632-8.192-12.8-8.192-20.992zM280.576 123.136c0-8.192 3.072-15.36 8.704-21.504l64.512-65.024c5.632-5.632 12.8-8.192 21.504-8.192 8.192 0 15.36 2.56 21.504 8.192l46.080 45.568c5.632 5.632 8.704 12.8 8.704 20.992s-3.072 15.36-8.704 21.504l-65.024 65.536c-5.632 5.632-12.8 8.704-21.504 8.704s-16.384-3.584-22.528-10.24c0.512-0.512 2.56-2.56 6.144-5.632s5.632-5.632 6.656-6.656c1.024-1.024 2.56-3.072 4.608-6.144 2.048-2.56 3.584-5.632 4.096-8.192s1.024-5.632 1.024-8.704c0-8.192-3.072-15.36-8.704-21.504-5.632-5.632-12.8-8.704-21.504-8.704-3.072 0-6.144 0.512-8.704 1.024s-5.12 2.048-8.192 4.096c-2.56 2.048-4.608 3.584-6.144 4.608-1.024 1.024-3.584 3.584-6.656 6.656-3.072 3.584-5.12 5.12-5.632 6.144-6.656-6.144-10.24-13.824-10.24-22.528z" />
<glyph unicode="&#xe601;" d="M3.712 86.864q0 3.712 2.864 6.576l112.288 112.288-112.288 112.288q-2.864 2.864-2.864 6.576t2.864 6.576l14.288 14.288q2.864 2.864 6.576 2.864t6.576-2.864l133.136-133.136q2.864-2.864 2.864-6.576t-2.864-6.576l-133.136-133.136q-2.864-2.864-6.576-2.864t-6.576 2.864l-14.288 14.288q-2.864 2.864-2.864 6.576z" horiz-adv-x="176" />
<glyph unicode="&#xe602;" d="M12.864 205.712q0 3.712 2.864 6.576l133.136 133.136q2.864 2.864 6.576 2.864t6.576-2.864l14.288-14.288q2.864-2.864 2.864-6.576t-2.864-6.576l-112.288-112.288 112.288-112.288q2.864-2.864 2.864-6.576t-2.864-6.576l-14.288-14.288q-2.864-2.864-6.576-2.864t-6.576 2.864l-133.136 133.136q-2.864 2.864-2.864 6.576z" horiz-adv-x="176" />
<glyph unicode="&#xe603;" d="M0 59.424v36.576q0 7.424 5.424 12.864t12.864 5.424h402.288q7.424 0 12.864-5.424t5.424-12.864v-36.576q0-7.424-5.424-12.864t-12.864-5.424h-402.288q-7.424 0-12.864 5.424t-5.424 12.864zM0 205.712v36.576q0 7.424 5.424 12.864t12.864 5.424h402.288q7.424 0 12.864-5.424t5.424-12.864v-36.576q0-7.424-5.424-12.864t-12.864-5.424h-402.288q-7.424 0-12.864 5.424t-5.424 12.864zM0 352v36.576q0 7.424 5.424 12.864t12.864 5.424h402.288q7.424 0 12.864-5.424t5.424-12.864v-36.576q0-7.424-5.424-12.864t-12.864-5.424h-402.288q-7.424 0-12.864 5.424t-5.424 12.864z" />
<glyph unicode="&#xe604;" d="M25.712 112.72q0 7.568 5.424 13.008l212 211.712q5.424 5.424 12.864 5.424t12.864-5.424l212-211.712q5.424-5.424 5.424-13.008t-5.424-13.008l-47.424-47.136q-5.424-5.424-12.864-5.424t-12.864 5.424l-151.712 151.712-151.712-151.712q-5.424-5.424-12.864-5.424t-12.864 5.424l-47.424 47.136q-5.424 5.424-5.424 13.008z" />
<glyph unicode="&#xe605;" d="M0 297.136q0 60.576 42.864 103.424t103.424 42.864 103.424-42.864 42.864-103.424q0-31.136-9.424-51.136l-104-221.136q-4.576-9.424-13.568-14.864t-19.28-5.424-19.28 5.424-13.28 14.864l-104.288 221.136q-9.424 20-9.424 51.136zM73.136 297.136q0-30.288 21.424-51.712t51.712-21.424 51.712 21.424 21.424 51.712-21.424 51.712-51.712 21.424-51.712-21.424-21.424-51.712z" horiz-adv-x="288" />
<glyph unicode="&#xe606;" d="M0 67.84c0 11.264 4.096 21.504 12.288 29.184l126.464 126.976-126.464 126.464c-8.192 8.192-12.288 17.92-12.288 29.696 0 11.264 4.096 20.992 12.288 29.184l58.368 58.368c8.192 8.192 17.92 12.288 29.184 12.288s21.504-4.096 29.184-12.288l126.976-126.464 126.464 126.464c8.192 8.192 17.92 12.288 29.696 12.288 11.264 0 21.504-4.096 29.184-12.288l58.368-58.368c8.192-8.192 12.288-17.92 12.288-29.184s-4.096-21.504-12.288-29.184l-126.464-126.976 126.464-126.464c8.192-8.192 12.288-17.92 12.288-29.184s-4.096-20.992-12.288-29.184l-58.368-58.88c-8.192-8.192-17.92-12.288-29.184-12.288s-20.992 4.096-29.184 12.288l-126.976 126.464-126.464-126.464c-8.192-8.192-17.92-12.288-29.184-12.288s-20.992 4.096-29.184 12.288l-58.88 58.368c-8.192 8.192-12.288 17.92-12.288 29.184z" />
<glyph unicode="&#xe607;" d="M0 117.504c0 4.608 1.536 8.192 5.12 11.776l239.104 239.104c3.584 3.584 7.168 5.12 11.776 5.12s8.192-1.536 11.776-5.12l239.104-239.104c3.584-3.584 5.12-7.168 5.12-11.776s-1.536-8.192-5.12-11.776l-25.6-25.6c-3.584-3.584-7.168-5.12-11.776-5.12s-8.192 1.536-11.776 5.12l-201.728 201.216-201.728-201.728c-3.584-3.584-7.168-5.12-11.776-5.12s-8.192 1.536-11.776 5.12l-25.6 25.6c-3.584 3.584-5.12 7.68-5.12 12.288z" />
<glyph unicode="&#xe608;" d="M0 330.496c0 4.608 1.536 8.192 5.12 11.776l25.6 25.6c3.584 3.584 7.168 5.12 11.776 5.12s8.192-1.536 11.776-5.12l201.728-201.216 201.728 201.728c3.584 3.584 7.168 5.12 11.776 5.12s8.192-1.536 11.776-5.12l25.6-25.6c3.584-3.584 5.12-7.168 5.12-11.776s-1.536-8.192-5.12-11.776l-239.104-239.616c-3.584-3.584-7.168-5.12-11.776-5.12s-8.192 1.536-11.776 5.12l-239.104 239.104c-3.584 3.584-5.12 7.68-5.12 11.776z" />
<glyph unicode="&#xe609;" d="M0 76.544v128c0 16.384 5.632 30.208 17.408 41.472 11.776 11.776 25.6 17.408 41.472 17.408h19.456v167.424c0 8.192 3.072 15.36 8.704 20.992s12.8 8.704 20.992 8.704h206.848c8.192 0 17.408-2.048 27.136-6.144s17.408-9.216 23.552-14.848l46.592-46.592c5.632-5.632 10.752-13.312 14.848-23.552 4.096-9.728 6.144-18.944 6.144-27.136v-78.848h19.456c16.384 0 30.208-5.632 41.472-17.408 11.776-11.776 17.408-25.6 17.408-41.472v-128c0-2.56-1.024-5.12-3.072-6.656-2.048-2.048-4.096-3.072-6.656-3.072h-68.608v-49.152c0-8.192-3.072-15.36-8.704-20.992s-12.8-8.704-20.992-8.704h-294.912c-8.192 0-15.36 3.072-20.992 8.704s-8.704 12.8-8.704 20.992v49.152h-69.12c-2.56 0-5.12 1.024-7.168 3.072-1.536 1.536-2.56 3.584-2.56 6.656zM118.272 224h275.456v118.272h-49.152c-8.192 0-15.36 3.072-20.992 8.704s-8.704 12.8-8.704 20.992v49.152h-196.608v-197.12zM118.272 26.88h275.456v78.848h-275.456v-78.848zM439.296 218.368c-4.096-4.096-5.632-8.704-5.632-13.824s2.048-9.728 5.632-13.824c4.096-4.096 8.704-5.632 13.824-5.632s9.728 2.048 13.824 5.632c4.096 4.096 5.632 8.704 5.632 13.824s-2.048 9.728-5.632 13.824c-4.096 4.096-8.704 5.632-13.824 5.632s-10.24-2.048-13.824-5.632z" />
<glyph unicode="&#xe60a;" d="M467.968 450.816h-423.936c-24.576 0-44.032-19.968-44.032-44.032v-286.208c0-24.064 19.456-44.032 44.032-44.032h424.448c24.064 0 44.032 19.456 44.032 44.032v286.208c-0.512 24.064-19.968 44.032-44.544 44.032zM470.528 146.688h-428.032v265.216h428.032v-265.216zM174.080 318.72v39.936l-71.68-79.36 71.68-79.36v39.936h60.928v78.848zM333.824 239.872v-39.936l72.192 79.36-72.192 79.36v-39.936h-60.928v-78.848zM364.544-2.816v20.992c0 12.288-9.728 22.016-22.016 22.016h-173.056c-12.288 0-22.016-9.728-22.016-22.016v-20.992h217.088z" />
<glyph unicode="&#xe60b;" d="M53.76 370.432v-86.016c0 0 0 0 0 0 0-15.872-13.312-28.672-29.184-28.672h-24.576v-62.464h24.576c15.872 0 29.184-12.8 29.184-28.672 0 0 0 0 0 0v-86.528c0-44.544 35.84-80.384 80.384-80.384h41.472v57.856h-36.352c-12.288 0-22.016 9.728-22.016 22.016v123.392c-2.048 14.336-14.336 25.088-28.672 25.088 14.848 0 26.624 10.752 28.672 25.088v124.928c0 12.288 9.728 22.016 22.016 22.016h36.352v53.248h-41.472c-44.544 0-80.384-36.352-80.384-80.896zM487.424 255.744c-15.872 0-29.184 12.8-29.184 28.672 0 0 0 0 0 0v86.016c0 44.544-35.84 80.384-80.384 80.384h-41.472v-52.736h36.352c12.288 0 22.016-9.728 22.016-22.016v-124.416c2.048-14.336 14.336-25.088 28.672-25.088-14.848 0-26.624-10.752-28.672-25.088v-123.392c0-12.288-9.728-22.016-22.016-22.016h-36.352v-58.368h41.472c44.544 0 80.384 35.84 80.384 80.384v86.016c0 0 0 0 0 0 0 15.872 13.312 28.672 29.184 28.672h24.576v62.464h-24.576z" />
<glyph unicode="&#xe60c;" d="M193.024 203.008c0-20.36-16.505-36.864-36.864-36.864s-36.864 16.505-36.864 36.864c0 20.36 16.505 36.864 36.864 36.864s36.864-16.504 36.864-36.864zM354.304 203.008c0-20.36-16.505-36.864-36.864-36.864s-36.864 16.505-36.864 36.864c0 20.36 16.505 36.864 36.864 36.864s36.864-16.504 36.864-36.864zM443.904 281.344c-4.608 0-8.704-0.512-12.8-2.048 1.024 7.68 1.536 15.36 1.536 23.552 0 97.792-85.504 177.152-191.488 177.152s-192-79.36-192-177.152c0-4.608 0-9.216 0.512-13.824 0-0.512 0-0.512 0-1.024v-42.496c-12.288-8.704-29.696-24.064-28.672-41.984 1.536-27.648 1.024-47.104 15.872-61.952s47.104-26.624 49.664-36.864 1.536-18.432 10.24-28.672c8.192-10.24 37.888-43.52 45.056-50.176 7.68-6.656 24.576 0 24.576 0s13.312 6.656 0 26.112-47.104 39.424-47.104 52.224c0 12.8-5.632 32.768-22.528 40.448s-37.888 15.872-38.4 31.744c-0.512 6.144 0 17.92 0.512 31.232 1.536-0.512 3.072-1.024 4.608-1.024h17.408c6.656-9.216 13.824-17.92 22.016-25.6v79.872c0 11.264 9.216 19.968 19.968 19.968 0 0 18.944 0 24.064 2.56 28.672 13.824 32.768 55.808 32.768 55.808h3.584c11.264-26.624 35.84-49.152 61.44-55.296 26.624-6.656 111.104-2.56 111.104-2.56 11.264 0 19.968-9.216 19.968-19.968v-43.008c3.072-6.144 9.728-15.872 23.552-18.432l-2.56-4.608v-17.92c0-7.168 2.048-14.336 4.608-20.48-5.12-6.144-10.24-12.288-13.312-13.312-5.632-1.536-33.792-6.656-34.304-14.848-1.024-8.192-14.336-47.616-22.528-53.76-8.192-5.632-2.048-20.48 10.752-28.672 0 0 14.336-15.36 52.736 61.952 10.24 8.704 23.552 17.408 34.304 24.064 0.512 0 1.536-0.512 2.048-1.024-13.312-38.4-29.184-79.872-49.152-95.744-17.408-13.824-51.712-15.36-71.168-16.384-2.56 23.040-22.528 40.96-46.080 40.96h-29.184c-25.6 0-46.592-20.992-46.592-46.592s20.992-46.592 46.592-46.592h30.208c19.456 0 36.352 12.288 43.008 29.184 30.72 2.048 83.456 6.656 100.864 17.408 16.384 9.728 37.376 74.752 50.176 118.784 18.432 6.656 31.232 23.552 31.232 44.032v57.856c0 26.112-20.992 47.104-47.104 47.104z" />
<glyph unicode="&#xe60d;" d="M0 187.648v74.24c0 2.56 1.024 5.12 2.56 7.68s4.096 4.096 6.144 4.096l61.952 9.216c3.072 10.24 7.68 20.48 12.8 30.72-8.704 12.8-20.992 28.16-35.84 46.080-2.048 2.56-3.584 5.12-3.584 8.192 0 2.048 1.024 4.608 3.072 7.68 5.632 8.192 16.896 19.968 32.768 35.84s26.624 24.064 31.744 24.064c3.072 0 5.632-1.024 8.704-3.584l46.080-35.84c9.728 5.12 19.968 9.216 30.208 12.8 4.096 30.208 7.68 50.688 10.24 61.952 1.536 6.144 5.632 9.216 12.288 9.216h74.24c3.072 0 5.632-1.024 8.192-3.072s3.584-4.096 3.584-7.168l9.216-61.44c10.752-3.584 20.992-7.68 30.208-12.288l47.104 35.84c2.048 2.048 4.608 3.072 8.192 3.072 3.072 0 5.632-1.024 8.192-3.584 28.672-26.624 47.104-45.568 54.784-56.832 1.536-1.536 2.56-4.096 2.56-7.168 0-2.56-1.024-5.12-2.56-7.68-3.584-4.608-9.216-12.288-16.896-22.016-8.192-10.24-13.824-17.92-17.92-23.552 5.632-11.264 10.24-22.016 13.824-32.768l60.928-9.216c3.072-0.512 5.12-2.048 7.168-4.096 1.536-2.56 2.56-5.12 2.56-7.68v-74.24c0-2.56-1.024-5.12-2.56-7.68s-4.096-4.096-6.656-4.096l-61.44-9.216c-4.096-11.776-8.704-22.016-12.8-30.208 7.68-11.264 19.456-26.624 35.84-46.080 2.048-2.56 3.584-5.632 3.584-8.192 0-3.072-1.024-5.632-3.072-7.68-6.144-8.192-16.896-20.48-32.768-35.84-15.872-15.872-26.624-23.552-31.232-23.552-2.56 0-5.632 1.024-8.704 3.072l-46.080 35.84c-9.728-5.12-19.968-9.216-30.208-12.8-3.584-30.208-6.656-50.688-9.728-61.952-1.536-6.144-5.632-9.216-11.776-9.216h-75.776c-3.072 0-5.632 1.024-8.192 3.072s-3.584 4.096-3.584 7.168l-9.216 61.44c-10.752 3.584-20.992 7.68-30.208 12.288l-47.104-35.84c-2.048-2.048-5.12-3.072-8.192-3.072s-6.144 1.024-8.192 3.584c-28.16 25.088-46.080 44.032-54.784 55.808-1.536 2.048-2.56 4.608-2.56 7.68 0 2.56 1.024 5.12 2.56 7.68 3.072 4.608 9.216 12.288 16.896 22.016 8.192 10.24 13.824 17.92 17.92 23.552-6.144 11.264-10.752 22.016-13.824 32.768l-60.928 9.216c-3.072 0.512-5.12 2.048-7.168 4.096-1.536 2.048-2.56 4.608-2.56 7.68zM195.584 284.416c-16.896-16.896-25.088-36.864-25.088-60.416s8.192-43.52 25.088-60.416c16.896-16.896 36.864-25.088 60.416-25.088s43.52 8.192 60.416 25.088c16.896 16.896 25.088 36.864 25.088 60.416s-8.192 43.52-25.088 60.416c-16.896 16.896-36.864 25.088-60.416 25.088s-43.52-8.704-60.416-25.088z" />
<glyph unicode="&#xe60e;" d="M476.672 480c0 0 0-0.512 0-0.512 0-10.752-8.704-18.944-18.944-18.944h-24.064c-10.752 0-18.944 8.704-18.944 18.944 0 0 0 0.512 0 0.512h-311.296c0 0 0-0.512 0-0.512 0-10.752-8.704-18.944-18.944-18.944h-24.064c-10.752 0-19.456 8.192-19.456 18.944 0 0 0 0.512 0 0.512h-24.064v-512h24.064c0 10.752 8.704 18.944 18.944 18.944h24.064c10.752 0 18.944-8.704 18.944-18.944h310.784c0 10.752 8.704 18.944 18.944 18.944h24.064c10.752 0 18.944-8.704 18.944-18.944h18.432v512h-17.408zM84.48 29.44h-24.064c-10.752 0-19.456 8.192-19.456 18.944s8.704 18.944 18.944 18.944h24.064c10.752 0 18.944-8.704 18.944-18.944 0.512-10.752-8.192-18.944-18.432-18.944zM84.48 112.384h-24.064c-10.752 0-18.944 8.704-18.944 18.944s8.704 18.944 18.944 18.944h24.064c10.752 0 18.944-8.704 18.944-18.944s-8.704-18.944-18.944-18.944zM84.48 202.496h-24.064c-10.752 0-18.944 8.704-18.944 18.944s8.704 18.944 18.944 18.944h24.064c10.752 0 18.944-8.704 18.944-18.944s-8.704-18.944-18.944-18.944zM84.48 285.952h-24.064c-10.752 0-18.944 8.704-18.944 18.944s8.704 18.944 18.944 18.944h24.064c10.752 0 18.944-8.704 18.944-18.944s-8.704-18.944-18.944-18.944zM84.48 377.088h-24.064c-10.752 0-18.944 8.704-18.944 18.944s8.704 18.944 18.944 18.944h24.064c10.752 0 18.944-8.704 18.944-18.944s-8.704-18.944-18.944-18.944zM390.144 17.664h-264.704v178.176h264.704v-178.176zM390.144 252.16h-264.704v178.176h264.704v-178.176zM457.728 29.44h-24.064c-10.752 0-18.944 8.704-18.944 18.944 0 10.752 8.704 18.944 18.944 18.944h24.064c10.752 0 18.944-8.704 18.944-18.944 0-10.752-8.704-18.944-18.944-18.944zM457.728 112.384h-24.064c-10.752 0-18.944 8.704-18.944 18.944s8.704 18.944 18.944 18.944h24.064c10.752 0 18.944-8.704 18.944-18.944s-8.704-18.944-18.944-18.944zM457.728 202.496h-24.064c-10.752 0-18.944 8.704-18.944 18.944s8.704 18.944 18.944 18.944h24.064c10.752 0 18.944-8.704 18.944-18.944s-8.704-18.944-18.944-18.944zM457.728 285.952h-24.064c-10.752 0-18.944 8.704-18.944 18.944s8.704 18.944 18.944 18.944h24.064c10.752 0 18.944-8.704 18.944-18.944s-8.704-18.944-18.944-18.944zM457.728 377.088h-24.064c-10.752 0-18.944 8.704-18.944 18.944s8.704 18.944 18.944 18.944h24.064c10.752 0 18.944-8.704 18.944-18.944s-8.704-18.944-18.944-18.944z" />
<glyph unicode="&#xe60f;" d="M0 199.936l171.008-58.368 232.96 207.36-178.176-221.696 187.904-65.536 98.304 398.848zM224.256-12.544l58.368 86.528-58.368 21.504z" />
<glyph unicode="&#xe610;" d="M44.032 115.456c0 44.544 2.56 77.824 7.68 99.84 2.56 11.264 8.192 20.48 16.384 28.16s18.432 12.288 29.184 13.312c34.816 3.584 87.552 5.632 158.208 5.632s123.392-2.048 158.72-5.632c11.264-1.536 20.992-5.632 29.184-13.312 8.704-7.68 13.824-16.896 16.384-28.16 5.12-21.504 7.68-54.784 7.68-99.84 0-44.544-2.56-77.824-7.68-99.84-2.56-11.264-8.192-20.48-16.384-28.16s-17.92-11.776-29.184-13.312c-34.816-4.096-88.064-6.144-158.72-6.144s-123.392 2.048-158.72 6.144c-11.264 1.024-20.992 5.632-29.184 13.312-8.704 7.68-13.824 16.896-16.384 28.16-4.608 20.992-7.168 54.272-7.168 99.84zM75.776 186.624h30.208v-162.304h28.672v162.304h30.72v26.624h-89.6v-26.624zM112.64 480h30.208l20.48-75.264 19.456 75.264h29.184l-34.816-114.176v-77.312h-28.672v77.312c-2.56 14.336-8.704 34.304-17.408 60.416-7.168 19.968-13.312 37.888-18.432 53.76zM168.96 53.504c0-9.216 0.512-16.384 2.048-20.992 2.048-7.168 7.68-10.752 16.384-10.752 9.216 0 18.944 5.632 29.184 17.408v-15.36h25.6v141.312h-25.6v-108.032c-5.632-8.192-11.264-11.776-16.384-11.776-3.584 0-5.632 2.048-6.144 6.144 0 0.512-0.512 4.096-0.512 10.24v103.424h-25.6v-111.616zM211.968 334.592v50.176c0 15.36 2.56 26.624 8.192 33.28 7.168 9.728 17.408 14.336 30.208 14.336 13.312 0 23.040-4.608 30.208-14.336 5.12-7.168 8.192-18.432 8.192-33.28v-50.176c0-15.36-2.56-26.624-8.192-33.792-7.168-9.728-16.896-14.336-30.208-14.336-12.8 0-22.528 4.608-30.208 14.336-5.632 7.68-8.192 18.944-8.192 33.792zM237.568 329.984c0-13.312 4.096-19.968 12.288-19.968s12.288 6.656 12.288 19.968v59.904c0 13.312-4.096 19.456-12.288 19.456s-12.288-6.656-12.288-19.456v-59.904zM264.704 23.808h25.6v13.824c8.704-10.752 17.408-15.872 26.624-15.872 10.24 0 16.896 5.12 20.48 15.872 1.536 5.12 2.56 14.848 2.56 28.672v56.32c0 13.824-1.024 23.552-2.56 28.16-3.072 10.752-10.24 15.872-20.48 15.872-9.728 0-18.432-5.12-26.624-15.36v61.952h-25.6v-189.44zM289.792 51.456v86.016c4.096 4.096 8.704 6.144 12.8 6.144 7.168 0 11.264-6.656 11.264-18.944v-60.416c0-12.8-3.584-18.944-11.264-18.944-4.096 0-8.192 2.048-12.8 6.144zM309.248 318.72v112.64h26.112v-104.96c0-6.144 0-9.728 0.512-10.24 0.512-4.096 2.56-6.144 6.144-6.144 5.12 0 10.752 4.096 16.384 12.288v109.056h25.6v-142.336h-26.112v15.872c-10.24-11.776-19.968-17.92-29.696-17.92-8.704 0-14.336 3.584-16.896 10.752-1.024 4.096-2.048 11.264-2.048 20.992zM359.424 69.888c0-14.848 2.56-26.112 8.192-33.28 7.168-9.728 17.92-14.336 30.72-14.336 13.824 0 24.064 5.12 30.72 15.36 3.584 5.12 5.632 10.24 6.144 15.36 0.512 1.536 0.512 7.168 0.512 16.384v3.584h-26.112c0-9.728 0-15.36-0.512-17.408-1.536-6.656-5.12-10.24-11.264-10.24-8.704 0-13.312 6.656-13.312 19.456v25.088h51.2v29.184c0 14.848-2.56 26.112-7.68 33.28-7.168 9.728-17.408 14.336-30.208 14.336s-23.040-4.608-30.72-14.336c-5.12-7.168-8.192-17.92-8.192-33.28v-49.152zM385.024 111.36v13.312c0 12.8 4.096 19.456 12.8 19.456s12.8-6.656 12.8-19.456v-13.312h-25.6z" />
<glyph unicode="&#xe611;" d="M0 33.536v380.928c0 17.92 6.656 33.28 19.456 46.080s28.16 19.456 46.080 19.456h380.416c17.92 0 33.28-6.656 46.592-19.456 12.8-12.8 19.456-28.16 19.456-46.080v-380.416c0-17.92-6.656-33.28-19.456-46.080s-28.16-19.456-46.592-19.456h-380.416c-17.92 0-33.28 6.656-46.592 19.456-12.288 12.288-18.944 27.648-18.944 45.568zM56.832 47.36c0-5.632 2.048-10.752 5.632-14.336 4.096-4.096 8.704-5.632 14.336-5.632h356.352c5.632 0 10.24 2.048 14.336 5.632 4.096 4.096 6.144 8.704 6.144 14.336v216.064h-45.056c4.608-13.824 6.656-28.672 6.656-43.52 0-28.16-7.168-53.76-21.504-77.312s-33.792-42.496-57.856-56.32c-24.576-13.824-51.2-20.48-79.872-20.48-43.52 0-81.408 14.848-112.128 45.056-31.232 29.696-46.592 66.048-46.592 108.544 0 15.36 2.048 29.696 6.656 43.52h-47.104v-215.552zM183.808 295.68c-19.968-19.456-30.208-43.008-30.208-70.656s10.24-51.2 30.208-70.656c19.968-19.456 44.032-29.184 72.704-29.184s52.736 9.728 72.704 29.184c19.968 19.456 30.208 43.008 30.208 70.656s-10.24 51.2-30.208 70.656c-19.968 19.456-44.544 29.184-72.704 29.184s-52.736-9.728-72.704-29.184zM350.208 344.832c0-6.656 2.048-11.776 6.656-16.384s9.728-6.656 16.384-6.656h57.856c6.656 0 11.776 2.048 16.384 6.656s6.656 9.728 6.656 16.384v55.296c0 6.144-2.048 11.776-6.656 16.384s-9.728 6.656-16.384 6.656h-58.368c-6.656 0-11.776-2.048-16.384-6.656s-6.656-9.728-6.656-16.384v-55.296z" />
<glyph unicode="&#xe612;" d="M122.88 201.472v91.136h78.336v67.072c0 37.888 10.752 67.584 31.744 88.576 22.016 20.992 50.176 31.744 86.016 31.744 29.696 0 53.248-1.024 70.144-3.584v-81.408h-48.128c-17.408 0-29.696-3.584-35.84-11.264-6.144-7.168-9.216-18.432-9.216-33.28v-58.368h90.112l-12.288-90.624h-77.824v-233.472h-94.208v233.472h-78.848z" />
<glyph unicode="&#xe613;" d="M0 63.232c7.68-1.024 15.872-1.024 25.6-1.024 48.64 0 92.16 14.848 130.048 45.056-22.528 0.512-43.008 7.68-60.928 20.992s-30.208 30.72-36.864 51.712c7.168-1.024 13.824-1.536 19.968-1.536 9.216 0 18.432 1.024 27.648 3.584-24.064 5.12-44.544 16.896-60.416 36.352-15.872 18.944-24.064 41.472-24.064 66.56v1.536c14.848-8.192 30.72-12.8 47.616-13.312-14.336 9.728-25.6 22.016-34.304 37.376-8.192 15.36-12.8 32.256-12.8 50.176 0 18.944 4.608 36.864 14.336 52.736 26.112-32.256 57.856-57.856 95.744-77.312 37.376-19.456 77.824-30.208 120.832-32.256-1.536 8.192-2.56 16.384-2.56 24.064 0 29.184 10.24 53.76 30.72 74.24s45.056 30.72 74.24 30.72c30.208 0 55.808-11.264 76.8-33.28 23.552 4.608 45.568 12.8 66.56 25.088-8.192-25.088-23.552-44.032-46.080-57.856 19.968 2.048 40.448 7.68 60.416 16.384-14.336-20.992-32.256-39.424-52.736-54.272 0-3.072 0.512-7.68 0.512-13.824 0-28.16-4.096-56.32-12.288-84.48s-20.992-54.784-37.376-80.896-37.376-48.64-60.928-68.608c-23.040-19.968-51.2-35.84-83.968-47.616s-67.584-17.92-104.96-17.92c-58.368 0.512-112.128 16.384-160.768 47.616z" />
<glyph unicode="&#xe614;" d="M12.8 63.232c0 16.384 4.608 31.744 13.824 46.080s21.504 26.112 36.352 35.328c27.136 16.896 68.096 27.136 124.416 30.72-6.656 8.704-11.264 16.384-14.848 22.528-3.072 6.656-4.608 13.824-4.608 22.528 0 7.168 2.048 15.872 6.656 26.112-9.216-1.024-16.384-1.024-20.992-1.024-30.208 0-55.808 9.728-76.8 29.696s-31.232 45.056-31.232 75.264c0 16.896 3.584 33.28 11.264 49.152s17.408 29.184 30.72 40.448c15.872 13.312 34.304 23.552 56.32 30.208 20.48 6.656 43.008 9.728 66.048 9.728h128.512l-42.496-27.136h-40.448c15.36-12.8 26.624-26.624 34.304-40.96s11.776-30.72 11.776-49.152c0-14.848-2.56-28.16-7.68-39.936s-11.264-21.504-17.92-28.672c-7.168-7.168-14.336-13.824-21.504-19.968s-13.312-12.288-18.432-18.944c-5.12-6.656-7.68-13.312-7.68-20.48s3.072-14.848 9.728-21.504c6.656-7.168 14.336-13.824 24.064-20.992 9.216-6.656 18.432-14.336 27.648-22.528s16.896-18.944 23.552-31.744c6.656-13.312 9.728-27.648 9.728-43.52 0-18.432-5.12-36.352-14.848-53.248-14.848-25.088-36.352-43.52-65.024-55.296s-58.88-17.92-91.648-17.92c-27.136 0-52.224 4.096-75.776 12.8s-40.96 22.528-52.736 42.496c-6.656 12.288-10.24 25.6-10.24 39.936zM69.632 77.568c0-14.336 3.584-27.136 10.752-37.888s16.384-19.456 28.16-25.6c11.776-6.144 23.552-10.752 36.864-13.312 12.8-3.072 26.112-4.608 39.424-4.608 11.776 0 23.552 1.536 34.304 4.096s20.992 6.656 30.72 11.776 16.896 12.8 22.528 22.528c5.632 9.728 8.704 20.992 8.704 33.792 0 5.12-0.512 10.24-2.048 14.848-1.536 5.12-3.072 9.216-4.608 12.8s-4.096 8.192-8.192 12.8c-4.096 4.608-7.168 8.192-9.216 10.752s-6.144 6.144-11.776 10.752c-5.632 4.608-9.728 7.68-11.264 8.704s-6.144 4.096-12.8 9.216c-6.656 5.12-10.752 7.68-11.264 8.192-3.072 0.512-8.192 0.512-14.848 0.512-10.752 0-21.504-0.512-32.256-2.048s-21.504-4.096-33.28-7.68c-11.264-3.584-21.504-8.192-29.696-14.336-8.704-5.632-15.36-13.312-20.992-23.040-6.144-9.216-9.216-19.968-9.216-32.256zM102.4 383.232c0-9.216 1.024-19.456 3.072-30.208s5.12-20.992 9.728-31.744c4.608-10.752 9.728-19.968 15.872-28.672 6.144-8.192 13.824-15.36 23.040-20.48s18.944-8.192 29.696-8.192c7.68 0 15.872 1.536 24.064 5.12s14.848 7.68 20.48 13.312c10.752 11.776 16.384 28.16 16.384 49.152 0 11.776-1.536 24.576-5.12 38.4s-8.704 27.136-14.848 39.936c-6.656 12.8-15.36 23.552-26.112 31.744s-23.040 12.8-35.84 12.8c-8.704 0-16.896-2.048-25.6-6.144-8.192-4.096-14.848-9.216-19.968-16.384-9.728-11.264-14.848-27.648-14.848-48.64zM336.384 232.192v33.28h65.024v66.56h32.256v-66.56h65.536v-33.28h-65.536v-67.584h-32.256v67.584h-65.024z" />
<glyph unicode="&#xe615;" d="M0 352c0 35.328 12.288 65.536 37.376 90.624s55.296 37.376 90.624 37.376c28.672 0 54.784-8.704 77.824-26.624 16.896 3.584 33.792 5.12 50.176 5.12 31.744 0 61.952-6.144 91.136-18.432s53.76-29.184 75.264-50.176 37.888-46.080 50.176-74.752c12.288-29.184 18.432-59.392 18.432-91.136 0-16.384-1.536-32.768-5.12-50.176 17.92-23.040 26.624-49.152 26.624-77.824 0-35.328-12.288-65.536-37.376-90.624-25.6-25.088-55.808-37.376-91.136-37.376-28.672 0-54.784 8.704-77.824 26.624-16.896-3.584-33.792-5.12-50.176-5.12-31.744 0-61.952 6.144-91.136 18.432s-53.76 29.184-74.752 50.176-37.888 46.080-50.176 74.752c-12.288 29.184-18.432 59.392-18.432 91.136 0 16.384 1.536 32.768 5.12 50.176-17.92 23.040-26.624 49.152-26.624 77.824zM125.44 143.616c0-20.48 13.312-37.888 40.448-52.736 27.136-14.336 59.392-22.016 96.768-22.016 16.384 0 31.744 2.048 46.592 6.144s28.672 10.24 40.96 17.92c12.288 7.68 22.016 18.432 29.696 31.232 7.168 12.8 11.264 27.648 11.264 44.032 0 11.264-2.048 21.504-6.656 30.72-4.096 9.216-9.728 16.896-16.384 23.040s-14.336 11.264-24.576 16.384c-9.728 5.12-18.944 8.704-27.648 11.264s-18.432 5.12-29.184 7.68l-34.304 7.68c-6.656 1.536-11.776 2.56-14.848 3.584s-7.168 2.048-11.776 4.096c-4.608 1.536-8.192 3.584-10.24 5.12s-4.096 4.096-5.632 7.168c-1.536 3.072-2.56 6.144-2.56 10.24 0 16.896 15.872 25.6 48.128 25.6 9.728 0 17.92-1.536 25.6-4.096s13.312-5.632 17.92-9.728 8.704-7.168 12.8-11.264c4.096-3.584 8.192-7.168 13.312-9.728s10.24-4.096 15.872-4.096c10.24 0 18.944 3.584 25.088 10.752s9.728 15.872 9.728 25.6c0 12.288-6.144 23.040-18.432 33.28-12.288 9.728-28.16 17.408-47.104 22.528s-39.424 7.68-60.416 7.68c-15.36 0-29.696-1.536-44.032-5.12s-27.648-8.704-39.936-15.872c-12.288-7.168-22.016-16.896-29.696-29.184s-11.264-26.624-11.264-43.008c0-13.312 2.048-25.6 6.144-35.328 4.096-10.24 10.24-18.432 18.432-25.088s16.896-12.288 26.624-16.384 20.992-7.68 34.304-10.752l48.64-11.776c19.968-5.12 32.256-8.704 37.376-11.776 7.168-4.608 10.752-11.264 10.752-19.968s-4.608-15.872-13.312-21.504c-8.704-5.632-20.48-8.704-34.816-8.704-11.264 0-21.504 1.536-30.72 5.12s-16.384 7.68-21.504 12.8c-5.632 5.12-10.752 10.24-15.36 14.848-4.608 5.12-9.728 9.216-15.36 12.8s-11.776 5.12-17.92 5.12c-11.264 0-19.456-3.584-25.088-10.24-5.12-5.632-7.68-13.824-7.68-24.064z" />
<glyph unicode="&#xe616;" d="M384.512 447.744c-65.024 0-128.512-77.824-128.512-77.824s-63.488 77.824-128.512 77.824c-65.024 0-127.488-32.256-127.488-128.512 0-68.096 64-128 64-128l192-191.488 192 191.488c0 0 64 59.904 64 128 0 96.256-62.464 128.512-127.488 128.512z" />
<glyph unicode="&#xe617;" d="M173.568 125.184l82.944-83.456 82.432 83.968c-20.992 20.992-50.176 33.792-82.432 33.792s-61.44-13.312-82.944-34.304zM84.992 214.784l57.344-57.856c29.184 29.184 69.632 47.104 114.176 47.104s84.48-17.92 113.664-46.592l56.832 57.856c-43.52 43.52-103.936 70.144-170.496 70.144-67.072 0-127.488-27.136-171.52-70.656zM256.512 406.272c-100.352 0-190.976-40.448-256.512-105.984l56.32-56.832c51.2 51.2 122.368 82.432 200.192 82.432s147.968-30.72 199.168-81.408l56.32 57.344c-65.536 64.512-155.648 104.448-255.488 104.448z" />
<glyph unicode="&#xe618;" d="M19.456 46.848v196.608c0 10.752 4.096 19.968 11.776 27.648s16.896 11.776 27.648 11.776h84.48c7.168 5.12 21.504 20.992 41.984 47.616 11.776 15.36 23.040 28.672 32.768 39.424 5.12 5.12 8.704 13.824 11.776 26.112s6.144 25.088 9.216 38.912c3.072 13.824 9.216 24.576 17.92 33.28 8.704 8.192 17.92 11.776 28.672 11.776 17.408 0 32.768-3.584 46.592-10.24s24.064-16.896 31.232-31.232c7.168-14.336 10.752-33.28 10.752-57.344 0-18.944-5.12-38.912-14.848-58.88h54.272c21.504 0 39.936-7.68 55.296-23.552 15.36-15.36 23.552-33.792 23.552-55.296 0-18.432-5.12-34.816-14.848-50.176 2.048-6.656 2.56-13.824 2.56-20.992 0-15.872-4.096-30.72-11.776-44.032 0.512-4.096 1.024-8.704 1.024-13.312 0-20.48-6.144-38.912-18.432-54.784 0-28.672-8.704-51.2-26.112-67.584s-40.96-24.576-69.632-24.576h-39.936c-19.456 0-38.912 2.56-58.368 7.168-18.944 4.608-41.472 11.264-66.56 19.968-23.552 8.192-37.888 12.288-42.496 12.288h-89.088c-10.752 0-19.968 4.096-27.648 11.776s-11.776 16.896-11.776 27.648zM65.024 80.128c-4.096-4.096-5.632-8.704-5.632-13.824s2.048-9.728 5.632-13.824 8.704-5.632 13.824-5.632 9.728 2.048 13.824 5.632c4.096 4.096 5.632 8.704 5.632 13.824s-2.048 9.728-5.632 13.824c-4.096 4.096-8.704 5.632-13.824 5.632s-10.24-1.536-13.824-5.632zM137.728 46.848h9.728c2.56 0 6.144-0.512 9.728-1.024s7.168-1.024 10.24-2.048c3.072-0.512 6.656-2.048 11.776-3.584 4.608-1.536 8.192-2.56 10.752-3.584s6.144-2.048 10.752-3.584c5.12-1.536 7.68-3.072 8.704-3.072 43.52-14.848 78.336-22.528 105.472-22.528h37.376c39.424 0 58.88 16.896 58.88 51.2 0 5.12-0.512 11.264-1.536 17.408 6.144 3.072 10.752 8.704 14.336 16.384s5.632 14.848 5.632 22.528c0 7.68-2.048 14.848-5.632 20.992 10.752 10.24 16.384 22.528 16.384 36.864 0 5.12-1.024 10.752-3.072 16.896s-4.608 11.264-7.68 14.848c6.656 0 12.288 5.12 16.384 14.336 4.608 9.216 6.656 17.92 6.656 25.088 0 10.24-4.096 19.456-11.776 27.648-8.192 7.68-16.896 11.776-27.136 11.776h-108.544c0 11.776 5.12 28.16 14.848 49.152s14.848 37.376 14.848 49.152c0 19.968-3.072 34.816-9.728 44.544-6.144 9.728-18.944 14.336-38.4 14.336-5.12-5.632-9.216-14.336-12.288-26.624s-6.144-25.088-9.216-38.4c-3.072-13.824-9.216-24.576-17.92-33.28-4.608-4.608-12.8-13.824-24.064-27.648-1.024-1.024-3.072-4.096-7.168-9.216s-7.168-9.216-9.728-12.8c-2.56-3.072-6.144-7.68-10.752-13.312s-8.704-9.728-12.288-13.312c-3.584-3.584-7.68-7.168-11.776-10.752s-8.192-6.656-12.288-8.192c-4.096-2.048-7.68-2.56-11.264-2.56h-9.728v-197.632z" />
<glyph unicode="&#xe619;" d="M398.336 136.448c-21.504 0-40.96-8.192-55.808-20.992l-145.92 94.208c1.024 4.608 1.536 9.216 1.536 14.336 0 4.096-0.512 7.68-1.024 11.264l147.968 95.232c14.336-11.776 33.28-18.944 53.76-18.944 46.592 0 84.48 37.888 84.48 84.48s-38.4 83.968-84.992 83.968c-46.592 0-84.48-37.888-84.48-84.48 0-5.12 0.512-9.728 1.536-14.336l-146.432-93.696c-14.848 12.8-34.304 20.992-55.808 20.992-46.592 0-84.48-37.888-84.48-84.48s37.888-84.48 84.48-84.48c20.48 0 38.912 7.168 53.76 19.456l147.968-95.232c-0.512-3.584-1.024-7.68-1.024-11.264 0-46.592 37.888-84.48 84.48-84.48s84.48 37.888 84.48 84.48-37.888 83.968-84.48 83.968z" />
<glyph unicode="&#xe61a;" d="M256 472.32c-83.968 0-152.064-71.68-152.064-159.744 0-46.592 18.944-88.064 49.152-117.248 0 0 0 0 0 0 40.448-48.128 37.888-78.848 37.888-78.848h-6.144c-3.584 0-6.656-3.072-6.656-6.656v-60.928c0-3.584 3.072-6.656 6.656-6.656h16.384v-7.68c0-3.584 3.072-6.656 6.656-6.656h18.432l20.992-26.624h17.408l20.992 26.624h18.432c3.584 0 6.656 3.072 6.656 6.656v7.168h16.384c3.584 0 6.656 3.072 6.656 6.656v61.44c0 3.584-3.072 6.656-6.656 6.656h-7.168c0 0-2.048 29.184 35.84 75.776 31.744 29.184 52.224 72.192 52.224 120.32 0 88.064-68.096 159.744-152.064 159.744zM342.016 207.616l-2.048-2.048c-23.552-28.672-33.28-52.736-37.376-68.608h-94.208c-4.096 16.384-14.848 41.472-39.936 71.68l-0.512 1.024-0.512 0.512c-27.136 26.112-43.008 63.488-43.008 102.4 0 76.8 58.88 139.264 131.584 139.264 72.192 0 131.584-62.464 131.584-139.264 0-39.936-16.896-78.336-45.568-104.96zM313.344 292.608c-2.56 2.56-7.168 2.56-9.728 0l-47.616-47.616-48.128 48.128c-2.56 2.56-7.168 2.56-9.728 0l-2.048-2.048c-2.56-2.56-2.56-7.168 0-9.728l51.2-51.2v-72.704c0-3.584 3.072-6.656 6.656-6.656h2.56c3.584 0 6.656 3.072 6.656 6.656v72.704l51.2 51.2c2.56 2.56 2.56 7.168 0 9.728l-1.024 1.536zM69.12 320.256v6.656c0 3.584-3.072 6.656-6.656 6.656h-55.808c-3.584 0-6.656-3.072-6.656-6.656v-6.656c0-3.584 3.072-6.656 6.656-6.656h55.296c4.096 0 7.168 3.072 7.168 6.656zM77.824 414.464l-52.736 17.408c-3.584 1.024-7.68-0.512-8.704-4.096l-2.048-6.656c-1.024-3.584 0.512-7.68 4.096-8.704l52.736-17.408c3.584-1.024 7.68 0.512 8.704 4.096l2.048 6.656c1.536 3.584-0.512 7.68-4.096 8.704zM79.872 250.624c-1.024 3.584-5.12 5.632-8.704 4.096l-52.736-16.896c-3.584-1.024-5.632-5.12-4.096-8.704l2.048-6.656c1.024-3.584 5.12-5.632 8.704-4.096l52.736 17.408c3.584 1.024 5.632 5.12 4.096 8.704l-2.048 6.144zM505.344 334.080h-55.808c-3.584 0-6.656-3.072-6.656-6.656v-6.656c0-3.584 3.072-6.656 6.656-6.656h55.296c3.584 0 6.656 3.072 6.656 6.656v6.656c0.512 3.584-2.56 6.656-6.144 6.656zM432.128 399.104c1.024-3.584 5.12-5.632 8.704-4.096l52.736 17.408c3.584 1.024 5.632 5.12 4.096 8.704l-2.048 6.656c-1.024 3.584-5.12 5.632-8.704 4.096l-52.736-17.408c-3.584-1.024-5.632-5.12-4.096-8.704l2.048-6.656zM493.568 237.824l-52.736 17.408c-3.584 1.024-7.68-0.512-8.704-4.096l-2.048-6.656c-1.024-3.584 0.512-7.68 4.096-8.704l52.736-17.408c3.584-1.024 7.68 0.512 8.704 4.096l2.048 6.656c1.024 3.584-0.512 7.68-4.096 8.704z" />
<glyph unicode="&#xe61b;" d="M332.288 195.84c-30.208 19.968-36.352 39.424-34.304 54.784 38.4 19.456 65.024 49.664 70.144 86.016 9.216 69.12-63.488 132.608-161.792 142.336-98.304 9.216-185.856-38.4-195.072-107.008-9.216-69.12 63.488-132.608 161.792-142.336 17.92-1.536 35.328-1.536 51.712 0 57.856-52.224 119.808-41.472 107.52-33.792zM108.032 308.48c-7.68 0-15.36 2.048-18.944 4.096l2.56 16.384c4.096-2.048 10.752-3.584 15.872-3.584 9.216 0 13.312 4.608 13.312 11.264 0 7.168-4.096 10.752-12.8 15.872-13.312 8.192-18.432 18.432-18.432 27.136 0 15.872 10.24 28.672 30.72 28.672 6.144 0 12.288-1.536 15.36-3.584l-2.048-16.896c-2.56 1.536-7.168 3.584-12.288 3.584-8.192 0-12.288-5.12-12.288-10.24 0-5.632 3.072-8.704 13.312-15.36 12.8-7.68 17.92-17.92 17.92-28.16 0-17.408-12.8-29.184-32.256-29.184zM212.992 308.992l-1.536 34.304c-0.512 9.216-1.024 22.016-1.024 32.256h-0.512c-1.536-10.24-4.608-22.528-6.144-30.208l-8.704-34.304h-13.312l-8.192 34.304c-2.048 7.68-4.608 19.968-6.144 30.72h-0.512c-0.512-10.752-1.024-23.040-1.536-32.768l-1.536-33.792h-16.384l7.168 97.792h19.968l7.68-35.328c2.56-12.288 5.12-23.040 7.168-34.304h0.512c1.536 10.752 3.584 22.016 6.144 34.304l7.68 35.328h19.968l6.144-97.792h-16.896zM257.536 308.48c-7.68 0-15.36 2.048-18.432 4.096l2.56 16.384c4.096-2.048 10.752-3.584 15.872-3.584 9.216 0 13.312 4.608 13.312 11.264 0 7.168-4.096 10.752-12.8 15.872-13.312 8.192-18.432 18.432-18.432 27.136 0 15.872 10.24 28.672 30.72 28.672 6.144 0 12.288-1.536 15.36-3.584l-2.56-16.896c-2.56 1.536-7.168 3.584-12.288 3.584-8.192 0-12.288-5.12-12.288-10.24 0-5.632 3.072-8.704 13.312-15.36 12.8-7.68 17.92-17.92 17.92-28.16 0-17.408-12.8-29.184-32.256-29.184zM487.936 412.928c-9.216 9.216-19.968 13.824-32.256 13.824h-110.592c2.56-3.072 5.632-5.632 8.192-8.704 9.216-11.776 15.872-24.064 20.48-36.864h19.456c3.584 0 5.632-2.048 5.632-5.632s-2.048-5.632-5.632-5.632h-15.872c2.56-11.264 3.072-22.528 1.536-33.792 0-0.512 0-0.512 0-1.024h76.8c3.072 0 5.632-1.024 8.192-3.584 2.048-2.048 3.584-5.12 3.584-8.192v-251.904c0-3.072-1.024-5.632-3.584-8.192s-5.12-3.584-8.192-3.584h-183.296c-3.072 0-5.632 1.024-8.192 3.584-2.048 2.048-3.584 5.12-3.584 8.192v122.88c-10.752 5.12-22.528 12.288-34.304 22.016v-202.24c0-12.288 4.608-23.040 13.824-32.256s19.968-13.824 32.256-13.824h183.296c12.288 0 23.040 4.608 32.256 13.824s13.824 19.968 13.824 32.256v366.592c-0.512 12.288-5.12 23.040-13.824 32.256zM384-6.4c-5.632-5.632-12.288-8.192-20.48-8.192s-14.848 2.56-19.968 8.192c-5.632 5.632-8.192 12.288-8.192 20.48s2.56 14.848 8.192 19.968c5.632 5.632 12.288 8.192 19.968 8.192s14.848-3.072 20.48-8.192c5.632-5.632 8.192-12.288 8.192-19.968s-2.56-14.848-8.192-20.48z" />
<glyph unicode="&#xe61c;" d="M0 50.288v310.864q0 18.864 13.424 32.288t32.288 13.424h420.576q18.864 0 32.288-13.424t13.424-32.288v-310.864q0-18.864-13.424-32.288t-32.288-13.424h-420.576q-18.864 0-32.288 13.424t-13.424 32.288zM36.576 50.288q0-3.712 2.72-6.432t6.432-2.72h420.576q3.712 0 6.432 2.72t2.72 6.432v219.424q-9.136-10.288-19.712-18.864-76.576-58.864-121.712-96.576-14.576-12.288-23.712-19.136t-24.72-13.856-29.28-7.008h-0.576q-13.712 0-29.28 7.008t-24.72 13.856-23.712 19.136q-45.136 37.712-121.712 96.576-10.576 8.576-19.712 18.864v-219.424zM36.576 361.136q0-48 42-81.136 55.136-43.424 114.576-90.576 1.712-1.424 10-8.432t13.136-10.72 12.72-9.008 14.432-7.856 12.288-2.576h0.576q5.712 0 12.288 2.576t14.432 7.856 12.72 9.008 13.136 10.72 10 8.432q59.424 47.136 114.576 90.576 15.424 12.288 28.72 33.008t13.28 37.568v7.008t-0.144 3.712-0.864 3.568-1.568 2.576-2.576 2.144-4 0.72h-420.576q-3.712 0-6.432-2.72t-2.72-6.432z" />
</font>
</defs>
</svg>
